Скачать Правое дело / Just Cause (1995) BDRip 1080p бесплатно без регистрации






Год выпуска: 1995
Продолжительность: 01:42:20
Перевод: Профессиональный (полное дублирование) Варус-Видео
+ Профессиональный (многоголосый, закадровый) Россия
+ Авторский одноголосый А.Гаврилова
+ Авторский одноголосый Ю.Живова
+ Оригинальная звуковая дорожка
Аудио #3: Russian: 48 kHz, AC3,2.0 , ~192.00 kbps avg |Одноголосый закадровый, А. Гаврилов|
Аудио #2: Russian: 48 kHz, AC3,2.0 , ~192.00 kbps avg |Многоголосый закадровый, Россия|
О фильме:
В болотах Флориды находят зверски убитую девочку. В убийстве обвиняют Бобби Эрла Фергюсона. В то время, как этот человек, которому грозит электрический стул, находится в камере смертников, гарвардский профессор Пол Армстронг пытается еще раз расследовать это преступление.
Все глубже проникает он в сплетение расизма, интриг и преступлений, однако истина оказывается страшнее самых худших его предположений...



-=DoMiNo=- Оценка10 из 10 (1 голосов, самая низкая оценка - 10, самая высокая - 10) КатегорияЗарубежные фильмы Раздают0 Качают1 Сидер замечен16-02-2019 13:19:06 (4 месяца назад) Добавлен03-03-2014 8:51:18 (64 месяца назад) Размер10.72 GB (11508301053 Bytes)Выпущено: США
Аудио #4: Russian: 48 kHz, DTS,5.1 , ~1509.00 kbps avg |Одноголосый закадровый, Ю. Живов|
Формат: MKV
Аудио #1: Russian: 48 kHz, AC3,2.0 , ~192.00 kbps avg |Дубляж, Варус Видео|
Видео: 1920x800 at 23.976 fps, MPEG-4 AVC, ~11400 kbps avg
Качество: BDRip 1080p
Релиз:

M/IВидео
Идентификатор : 1
Формат : AVC
Формат/Информация : Advanced Video Codec
Профиль формата : High@L4.1
Параметр CABAC формата : Да
Параметр ReFrames формата : 4 кадра
Идентификатор кодека : V_MPEG4/ISO/AVC
Битрейт : 11,4 Мбит/сек
Ширина : 1920 пикселей
Высота : 800 пикселей
Соотношение сторон : 2,40:1
Режим частоты кадров : Переменный
Частота кадров в оригинале : 23,976 кадра/сек
Цветовое пространство : YUV
Субдискретизация насыщенности : 4:2:0
Битовая глубина : 8 бит
Тип развёртки : Прогрессивная
Бит/(Пиксели*Кадры) : 0.310
Библиотека кодирования : x264 core 125 r2200 999b753
Настройки программы : cabac=1 / ref=4 / deblock=1:-3:-3 / analyse=0x3:0x133 / me=umh / subme=11 / psy=1 / psy_rd=1.05:0.00 / mixed_ref=1 / me_range=32 / chroma_me=1 / trellis=2 / 8x8dct=1 / cqm=0 / deadzone=21,11 / fast_pskip=0 / chroma_qp_offset=-2 / threads=12 / lookahead_threads=2 / sliced_threads=0 / nr=0 / decimate=1 / interlaced=0 / bluray_compat=0 / constrained_intra=0 / bframes=8 / b_pyramid=2 / b_adapt=2 / b_bias=0 / direct=3 / weightb=1 / open_gop=0 / weightp=2 / keyint=240 / keyint_min=22 / scenecut=40 / intra_refresh=0 / rc_lookahead=60 / rc=2pass / mbtree=1 / bitrate=11400 / ratetol=1.0 / qcomp=0.70 / qpmin=0 / qpmax=69 / qpstep=4 / cplxblur=20.0 / qblur=0.5 / vbv_maxrate=50000 / vbv_bufsize=62500 / nal_hrd=none / ip_ratio=1.40 / aq=2:1.00
Язык : English
Default : Нет
Forced : Нет
Основные цвета : BT.709
Характеристики трансфера : BT.709
Коэффициенты матрицы : BT.709

Аудио #1
Идентификатор : 2
Формат : AC-3
Формат/Информация : Audio Coding 3
Расширение режима : CM (complete main)
Параметр Endianness формата : Big
Идентификатор кодека : A_AC3
Продолжительность : 1 ч. 42 м.
Вид битрейта : Постоянный
Битрейт : 192 Кбит/сек
Каналы : 2 канала
Расположение каналов : Front: L R
Частота : 48,0 КГц
Битовая глубина : 16 бит
Метод сжатия : С потерями
Размер потока : 141 Мбайт (1%)
Заголовок : AC3 2.0 Dubl-Варус Видео
Язык : Russian
Default : Да
Forced : Нет

Аудио #2
Идентификатор : 3
Формат : AC-3
Формат/Информация : Audio Coding 3
Расширение режима : CM (complete main)
Параметр Endianness формата : Big
Идентификатор кодека : A_AC3
Продолжительность : 1 ч. 42 м.
Вид битрейта : Постоянный
Битрейт : 192 Кбит/сек
Каналы : 2 канала
Расположение каналов : Front: L R
Частота : 48,0 КГц
Битовая глубина : 16 бит
Метод сжатия : С потерями
Размер потока : 141 Мбайт (1%)
Заголовок : AC3 2.0 MVO-Россия
Язык : Russian
Default : Нет
Forced : Нет

Аудио #3
Идентификатор : 4
Формат : AC-3
Формат/Информация : Audio Coding 3
Расширение режима : CM (complete main)
Параметр Endianness формата : Big
Идентификатор кодека : A_AC3
Продолжительность : 1 ч. 42 м.
Вид битрейта : Постоянный
Битрейт : 192 Кбит/сек
Каналы : 2 канала
Расположение каналов : Front: L R
Частота : 48,0 КГц
Битовая глубина : 16 бит
Метод сжатия : С потерями
Размер потока : 141 Мбайт (1%)
Заголовок : AC3 2.0 AVO-А. Гаврилов
Язык : Russian
Default : Нет
Forced : Нет

Аудио #4
Идентификатор : 5
Формат : DTS
Формат/Информация : Digital Theater Systems
Идентификатор кодека : A_DTS
Продолжительность : 1 ч. 42 м.
Вид битрейта : Постоянный
Битрейт : 1510 Кбит/сек
Каналы : 6 каналов
Расположение каналов : Front: L C R, Side: L R, LFE
Частота : 48,0 КГц
Битовая глубина : 24 бит
Метод сжатия : С потерями
Размер потока : 1,08 Гбайт (10%)
Заголовок : DTS 5.1 AVO-Ю. Живов
Язык : Russian
Default : Нет
Forced : Нет

Аудио #5
Идентификатор : 6
Формат : DTS
Формат/Информация : Digital Theater Systems
Идентификатор кодека : A_DTS
Продолжительность : 1 ч. 42 м.
Вид битрейта : Постоянный
Битрейт : 1510 Кбит/сек
Каналы : 6 каналов
Расположение каналов : Front: L C R, Side: L R, LFE
Частота : 48,0 КГц
Битовая глубина : 24 бит
Метод сжатия : С потерями
Размер потока : 1,08 Гбайт (10%)
Заголовок : DTS 5.1 Original
Язык : English
Default : Нет
Forced : Нет

Текст #1
Идентификатор : 7
Формат : UTF-8
Идентификатор кодека : S_TEXT/UTF8
Идентификатор кодека/Информация : UTF-8 Plain Text
Язык : Russian
Default : Нет
Forced : Нет

Текст #2
Идентификатор : 8
Формат : UTF-8
Идентификатор кодека : S_TEXT/UTF8
Идентификатор кодека/Информация : UTF-8 Plain Text
Язык : English
Default : Нет
Forced : Нет

Меню
00:00:00.000 : en:00:00:00.000
00:03:54.234 : en:00:03:54.234
00:07:22.608 : en:00:07:22.608
00:09:26.649 : en:00:09:26.649
00:13:00.029 : en:00:13:00.029
00:19:07.729 : en:00:19:07.729
00:22:38.315 : en:00:22:38.315
00:26:31.840 : en:00:26:31.840
00:29:26.389 : en:00:29:26.389
00:32:15.433 : en:00:32:15.433
00:36:17.425 : en:00:36:17.425
00:38:07.910 : en:00:38:07.910
00:41:07.840 : en:00:41:07.840
00:44:39.635 : en:00:44:39.635
00:48:03.672 : en:00:48:03.672
00:51:06.813 : en:00:51:06.813
00:55:31.578 : en:00:55:31.578
00:58:21.998 : en:00:58:21.998
01:04:42.628 : en:01:04:42.628
01:07:13.362 : en:01:07:13.362
01:09:38.090 : en:01:09:38.090
01:12:20.419 : en:01:12:20.419
01:15:25.562 : en:01:15:25.562
01:19:07.033 : en:01:19:07.033
01:21:27.257 : en:01:21:27.257
01:27:54.435 : en:01:27:54.435
01:31:26.606 : en:01:31:26.606
01:33:05.204 : en:01:33:05.204
01:36:01.005 : en:01:36:01.005
01:37:52.449 : en:01:37:52.449 ЗалилВ ролях: Шон Коннери, Лоренс Фишбёрн, Кейт Кэпшоу, Блэр Андервуд, Эд Харрис, Кристофер Мюррэй, Руби Ди, Скарлетт Йоханссон, Дэниел Дж. Траванти, Нед Битти

Аудио #5: English: 48 kHz, DTS,5.1 , ~1509.00 kbps avg



Cубтитры: Russian, English

Режиссер: Арн Глимчер / Arne Glimcher
Жанр: триллер, драма, криминал, детектив

Если у вас возникли проблемы с закачкой Правое дело / Just Cause (1995) BDRip 1080p, перейдите по ссылке - там вы найдете решение своей проблемы.

Категория: Зарубежные фильмы

 

Скачать Правое дело / Just Cause (1995) BDRip 1080p бесплатно без регистрации

 

Информация
Посетители, находящиеся в группе Гости, не могут оставлять комментарии к данной публикации.
 
 
Скачать Правое дело / Just Cause (1995) BDRip 1080p бесплатно без регистрацииCopyright © 2019 .