Скачать Сорвиголова / Daredevil [S03] (2018) WEBRip 1080p | GreenРай Studio бесплатно без регистрации






Информация о фильме
О фильме: В результате несчастного случая юный Мэтт Мердок теряет зрение, но зато все остальные его чувства усиливаются в десятки раз. Повзрослев, Мердок понимает, что хочет посвятить свою жизнь защите людей и борьбе с преступностью. Днем он — успешный адвокат, а ночью — мститель в маске по прозвищу Сорвиголова.



Видео данные: MKV, 1920x1080 (16:9), 23.976 fps, 4495 Кбит/с
GreenRayStudio ОценкаНикто ещё не поставил оценку КатегорияЗарубежные сериалы Раздают1 Качают0 Сидер замечен08-06-2019 17:19:11 (4 минуты назад) Добавлен21-10-2018 15:28:39 (8 месяцев назад) Размер24.57 GB (26380740792 Bytes)Название: Сорвиголова
В ролях: Чарли Кокс, Дебора Энн Уолл, Элден Хенсон, Розарио Доусон, Винсент Д`Онофрио, Айелет Зурер, Боб Гантон, Тоби Мур, Вонди Куртис-Холл, Роб Морган

Внимание, имеется видео и аудио реклама от спонсора показа

Скриншоты


Режиссер: Фил Абрахам, Фэррен Блэкберн, Стивен С. ДеНайт
Аудио данные: AC3, 2 ch, 192 Кбит/с
Оригинальное название: Daredevil
Перевод: Любительский многоголосый (GreenРай Studio)
Релиз от: ЗалилПродолжительность: 13 x 00:54:00

МедиаинфоGeneral
Unique ID : 248161863940158169355916726016960463983 (0xBAB23C8A111124FEAFBDABFAAA95846F)
Complete name : C:UsersIgorDesktopсорвиMarvels.Daredevil.S03.WEBRip.1080pMarvels.Daredevil.S03E01.WEBRip.1080p.mkv
Format : Matroska
Format version : Version 4
File size : 1.81 GiB
Duration : 54 min 16 s
Overall bit rate : 4 782 kb/s
Encoded date : UTC 2018-10-21 06:50:33
Writing application : mkvmerge v6.5.0 ('Isn't she lovely') built on Oct 20 2013 12:50:05
Writing library : libebml v1.3.0 + libmatroska v1.4.1

Video
ID : 1
Format : AVC
Format/Info : Advanced Video Codec
Format profile : High@L3.1
Format settings : CABAC / 4 Ref Frames
Format settings, CABAC : Yes
Format settings, RefFrames : 4 frames
Codec ID : V_MPEG4/ISO/AVC
Duration : 54 min 16 s
Bit rate : 4 495 kb/s
Width : 1 920 pixels
Height : 1 080 pixels
Display aspect ratio : 16:9
Frame rate mode : Constant
Frame rate : 23.976 (23976/1000) FPS
Color space : YUV
Chroma subsampling : 4:2:0
Bit depth : 8 bits
Scan type : Progressive
Bits/(Pixel*Frame) : 0.090
Stream size : 1.70 GiB (94%)
Writing library : x264 core 146 r2538 121396c
Encoding settings : cabac=1 / ref=1 / deblock=1:0:0 / analyse=0x3:0x113 / me=hex / subme=2 / psy=1 / psy_rd=1.00:0.00 / mixed_ref=0 / me_range=16 / chroma_me=1 / trellis=0 / 8x8dct=1 / cqm=0 / deadzone=21,11 / fast_pskip=1 / chroma_qp_offset=0 / threads=9 / lookahead_threads=3 / sliced_threads=0 / nr=0 / decimate=1 / interlaced=0 / bluray_compat=0 / constrained_intra=0 / bframes=3 / b_pyramid=2 / b_adapt=1 / b_bias=0 / direct=1 / weightb=1 / open_gop=0 / weightp=1 / keyint=250 / keyint_min=23 / scenecut=40 / intra_refresh=0 / rc_lookahead=10 / rc=crf / mbtree=1 / crf=18.0 / qcomp=0.60 / qpmin=0 / qpmax=69 / qpstep=4 / ip_ratio=1.40 / aq=1:1.00
Default : Yes
Forced : No

Audio
ID : 2
Format : AC-3
Format/Info : Audio Coding 3
Commercial name : Dolby Digital
Codec ID : A_AC3
Duration : 54 min 16 s
Bit rate mode : Constant
Bit rate : 192 kb/s
Channel(s) : 2 channels
Channel layout : L R
Sampling rate : 48.0 kHz
Frame rate : 31.250 FPS (1536 SPF)
Bit depth : 16 bits
Compression mode : Lossy
Stream size : 74.5 MiB (4%)
Service kind : Complete Main
Default : Yes
Forced : No

Год выпуска: 2018
Жанр: Фантастика, боевик
Страна: США, ABC Television Studio, Marvel Entertainment
Качество: WEBRip 1080p

Если у вас возникли проблемы с закачкой Сорвиголова / Daredevil [S03] (2018) WEBRip 1080p | GreenРай Studio, перейдите по ссылке - там вы найдете решение своей проблемы.

Категория: Зарубежные сериалы

 

Скачать Сорвиголова / Daredevil [S03] (2018) WEBRip 1080p | GreenРай Studio бесплатно без регистрации

 

Информация
Посетители, находящиеся в группе Гости, не могут оставлять комментарии к данной публикации.
 
 
Скачать Сорвиголова / Daredevil [S03] (2018) WEBRip 1080p | GreenРай Studio бесплатно без регистрацииCopyright © 2019 .