Скачать Леонид Фёдоров - Лиловый день (2003) FLAC бесплатно без регистрации






Год издания: 2003
Тип рипа: image+.cue
Треклист:
01 - Музыка моя
02 - Думай про меня
03 - Бабуля
04 - Пол неба
05 - Вьюга
06 - Старец
07 - Печаль
08 - Муж
09 - Города
10 - Лиловый день
11 - Якоря
Лог создания рипа
Exact Audio Copy V0.99 prebeta 4 from 23. January 2008

Отчёт EAC об извлечении, выполненном 15. октября 2008, 1:51

Леонид Федоров / Лиловый день

Дисковод: BENQ DVD DD EW164B Adapter: 3 ID: 0

Режим чтения : Достоверность
Использование точного потока : Да
Отключение кэша аудио : Да
Использование указателей C2 : Нет

Коррекция смещения при чтении : 618
Способность читать области Lead-in и Lead-out : Нет
Заполнение пропущенных сэмплов тишиной : Да
Удаление блоков с тишиной в начале и конце : Нет
При вычислениях CRC использовались нулевые сэмплы : Нет
Интерфейс : Встроенный Win32-интерфейс для Win NT/2000

Выходной формат : Внутренние WAV-операции
Формат сэмплов : 44.100 Гц; 16 бит; стерео

TOC извлечённого CD

Трек | Старт | Длительность | Начальный сектор | Конечный сектор
---------------------------------------------------------------------
1 | 0:00.00 | 3:21.56 | 0 | 15130
2 | 3:21.56 | 5:04.09 | 15131 | 37939
3 | 8:25.65 | 2:15.49 | 37940 | 48113
4 | 10:41.39 | 4:42.46 | 48114 | 69309
5 | 15:24.10 | 3:40.72 | 69310 | 85881
6 | 19:05.07 | 4:01.59 | 85882 | 104015
7 | 23:06.66 | 3:20.38 | 104016 | 119053
8 | 26:27.29 | 6:41.02 | 119054 | 149130
9 | 33:08.31 | 2:26.45 | 149131 | 160125
10 | 35:35.01 | 6:25.68 | 160126 | 189068
11 | 42:00.69 | 6:23.31 | 189069 | 217824

Характеристики диапазона извлечения и сообщения об ошибках

Выбранный диапазон

Имя файла G:WAWАукцыон - федоров2003 лиловый деньЛеонид Федоров - Лиловый день.wav

Пиковый уровень 100.0 %
Качество диапазона 100.0 %
CRC копии BDF969E6
Копирование... OK

Ошибок не произошло

AccurateRip: сводка

Трек 1 нет в базе данных
Трек 2 нет в базе данных
Трек 3 нет в базе данных
Трек 4 нет в базе данных
Трек 5 нет в базе данных
Трек 6 нет в базе данных
Трек 7 нет в базе данных
Трек 8 нет в базе данных
Трек 9 нет в базе данных
Трек 10 нет в базе данных
Трек 11 нет в базе данных

Ни одного трека нет в базе AccurateRip

Конец отчёта

ЗалилНоситель: CD
Наличие сканов в содержимом раздачи: да

Страна исполнителя (группы): Россия
Страна-производитель диска (релиза): Россия
Номер по каталогу: GEO 001CD
Битрейт аудио: lossless
Издатель (лейбл): Геометрия
Портвейнгеноссе ОценкаНикто ещё не поставил оценку КатегорияМузыка Раздают0 Качают0 Сидер замечен01-12-2018 17:19:07 (6 месяцев назад) Добавлен13-01-2015 18:49:17 (54 месяца назад) Размер361.57 MB (379130510 Bytes)Продолжительность: 00:48:24
Жанр: rock, avantgarde
Аудиокодек: FLAC (*.flac)

Если у вас возникли проблемы с закачкой Леонид Фёдоров - Лиловый день (2003) FLAC, перейдите по ссылке - там вы найдете решение своей проблемы.

Категория: Музыка

 

Скачать Леонид Фёдоров - Лиловый день (2003) FLAC бесплатно без регистрации

 

Информация
Посетители, находящиеся в группе Гости, не могут оставлять комментарии к данной публикации.
 
 
Скачать Леонид Фёдоров - Лиловый день (2003) FLAC бесплатно без регистрацииCopyright © 2019 .