Скачать Спайдервик: Хроники / The Spiderwick Chronicles (2008) BDRip 1080p by msltel | D, P, A бесплатно без регистрации






Аудио 1: русский, 48 kHz, AC3, 6 ch, 640 kbps avg, [Дублированный]
Аудио 2: украинский, 48 kHz, AC3, 6 ch, 640 kbps avg, [Дублированный]
Оригинальное название: The Spiderwick Chronicles
Название: Спайдервик: Хроники
Аудио 5: английский, 48 kHz, DTS, 6 ch, 1509 kbps avg, [Оригинал]
Аудио 4: русский, 48 kHz, DTS, 6 ch, 1509 kbps avg, [Авторский, Юрий Немахов]
msltel Оценка10 из 10 (1 голосов, самая низкая оценка - 10, самая высокая - 10) КатегорияЗарубежные фильмы Раздают1 Качают0 Сидер замечен07-06-2019 16:19:12 (15 часов назад) Добавлен26-10-2013 9:08:44 (68 месяцев назад) Размер11.84 GB (12718244064 Bytes)Размер: 11.84 ГБ
Аудио 3: русский, 48 kHz, DTS, 6 ch, 1509 kbps avg, [Профессиональный многоголосый, Lost Film]
Год выпуска: 2008
Выпущено: США, Paramount
О фильме: Когда семейство Грейс переезжает в старый дом, стоящий на окраине, там начинают твориться странные вещи. Пытаясь понять в чём дело, Джаред обнаруживает дневник Артура Спайдервика и открывает невероятную правду о поместье: здесь находится скрытая от глаз таинственная страна, населённая фантастическими созданиями! Стремясь защитить свой секрет, Джаред, его сестра и брат-близнец переживают незабываемые приключения.

Исходник: Мастер5 (Кинозал)

Сравнение с исходником



НаградыРежиссер: Марк С. Уотерс
Субтитры 2: украинские
В ролях: Фредди Хаймор, Сара Болджер, Ник Нолти, Мэри-Луиз Паркер, Джоан Плоурайт, Дэвид Стрэтэйрн, Сет Роген, Джорди Бенаттар

Качество: BDRip 1080p
Сатурн, 2009 год
Номинации (2):
Лучший фэнтези-фильм
Лучший молодой актер/актриса (Фредди Хаймор)MediaInfo + Лог х264Общее
Уникальный идентификатор : 233688694459512991580021567775001861008 (0xAFCECE30D1E947EB8A0771B67384DB90)
Полное имя : E:VideoSpajdervik.2008.x264.BDRip.1080p.mkv
Формат : Matroska
Версия формата : Version 4 / Version 2
Размер файла : 11,8 Гбайт
Продолжительность : 1 ч. 35 м.
Общий поток : 17,7 Мбит/сек
Название фильма : Спайдервик: Хроники / The Spiderwick Chronicles / 2008 / BDRip -- STarankov
Дата кодирования : UTC 2013-10-26 02:48:46
Программа кодирования : mkvmerge v6.4.1 ('Omega Point') built on Sep 16 2013 22:05:10
Библиотека кодирования : libebml v1.3.0 + libmatroska v1.4.1

Видео
Идентификатор : 1
Формат : AVC
Формат/Информация : Advanced Video Codec
Профиль формата : High@L4.1
Параметр CABAC формата : Да
Параметр ReFrames формата : 5 кадров
Идентификатор кодека : V_MPEG4/ISO/AVC
Продолжительность : 1 ч. 35 м.
Битрейт : 11,5 Мбит/сек
Ширина : 1920 пикселей
Высота : 816 пикселей
Соотношение сторон : 2,35:1
Режим частоты кадров : Постоянный
Частота кадров : 23,976 кадра/сек
Цветовое пространство : YUV
Субдискретизация насыщенности : 4:2:0
Битовая глубина : 8 бит
Тип развёртки : Прогрессивная
Бит/(Пиксели*Кадры) : 0.307
Размер потока : 7,72 Гбайт (65%)
Библиотека кодирования : x264 core 133 r2334 a3ac64b
Настройки программы : cabac=1 / ref=5 / deblock=1:-1:-1 / analyse=0x3:0x113 / me=umh / subme=10 / psy=1 / psy_rd=1.00:0.15 / mixed_ref=1 / me_range=24 / chroma_me=1 / trellis=2 / 8x8dct=1 / cqm=0 / deadzone=21,11 / fast_pskip=0 / chroma_qp_offset=-3 / threads=6 / lookahead_threads=1 / sliced_threads=0 / nr=0 / decimate=1 / interlaced=0 / bluray_compat=0 / constrained_intra=0 / bframes=8 / b_pyramid=2 / b_adapt=2 / b_bias=0 / direct=1 / weightb=1 / open_gop=0 / weightp=2 / keyint=230 / keyint_min=23 / scenecut=40 / intra_refresh=0 / rc_lookahead=40 / rc=crf / mbtree=0 / crf=18.5 / qcomp=0.60 / qpmin=0 / qpmax=69 / qpstep=4 / vbv_maxrate=50000 / vbv_bufsize=62500 / crf_max=0.0 / nal_hrd=none / ip_ratio=1.40 / pb_ratio=1.30 / aq=1:1.00
Язык : English
Default : Да
Forced : Нет

Аудио #1
Идентификатор : 2
Формат : AC-3
Формат/Информация : Audio Coding 3
Расширение режима : CM (complete main)
Параметр Endianness формата : Big
Идентификатор кодека : A_AC3
Продолжительность : 1 ч. 35 м.
Вид битрейта : Постоянный
Битрейт : 640 Кбит/сек
Каналы : 6 каналов
Расположение каналов : Front: L C R, Side: L R, LFE
Частота : 48,0 КГц
Битовая глубина : 16 бит
Метод сжатия : С потерями
Размер потока : 438 Мбайт (4%)
Заголовок : DUB
Язык : Russian
Default : Да
Forced : Нет

Аудио #2
Идентификатор : 3
Формат : AC-3
Формат/Информация : Audio Coding 3
Расширение режима : CM (complete main)
Параметр Endianness формата : Big
Идентификатор кодека : A_AC3
Продолжительность : 1 ч. 35 м.
Вид битрейта : Постоянный
Битрейт : 640 Кбит/сек
Каналы : 6 каналов
Расположение каналов : Front: L C R, Side: L R, LFE
Частота : 48,0 КГц
Битовая глубина : 16 бит
Метод сжатия : С потерями
Размер потока : 438 Мбайт (4%)
Заголовок : DUB
Язык : Ukrainian
Default : Нет
Forced : Нет

Аудио #3
Идентификатор : 4
Формат : DTS
Формат/Информация : Digital Theater Systems
Режим : 16
Параметр Endianness формата : Big
Идентификатор кодека : A_DTS
Продолжительность : 1 ч. 35 м.
Вид битрейта : Постоянный
Битрейт : 1509 Кбит/сек
Каналы : 6 каналов
Расположение каналов : Front: L C R, Side: L R, LFE
Частота : 48,0 КГц
Битовая глубина : 24 бит
Метод сжатия : С потерями
Размер потока : 1,01 Гбайт (9%)
Заголовок : MVO (Lost Film)
Язык : Russian
Default : Нет
Forced : Нет

Аудио #4
Идентификатор : 5
Формат : DTS
Формат/Информация : Digital Theater Systems
Режим : 16
Параметр Endianness формата : Big
Идентификатор кодека : A_DTS
Продолжительность : 1 ч. 35 м.
Вид битрейта : Постоянный
Битрейт : 1509 Кбит/сек
Каналы : 6 каналов
Расположение каналов : Front: L C R, Side: L R, LFE
Частота : 48,0 КГц
Битовая глубина : 24 бит
Метод сжатия : С потерями
Размер потока : 1,01 Гбайт (9%)
Заголовок : AVO (Юрий Немахов)
Язык : Russian
Default : Нет
Forced : Нет

Аудио #5
Идентификатор : 6
Формат : DTS
Формат/Информация : Digital Theater Systems
Режим : 16
Параметр Endianness формата : Big
Идентификатор кодека : A_DTS
Продолжительность : 1 ч. 35 м.
Вид битрейта : Постоянный
Битрейт : 1509 Кбит/сек
Каналы : 6 каналов
Расположение каналов : Front: L C R, Side: L R, LFE
Частота : 48,0 КГц
Битовая глубина : 24 бит
Метод сжатия : С потерями
Размер потока : 1,01 Гбайт (9%)
Заголовок : Original
Язык : English
Default : Нет
Forced : Нет

Текст #1
Идентификатор : 7
Формат : UTF-8
Идентификатор кодека : S_TEXT/UTF8
Идентификатор кодека/Информация : UTF-8 Plain Text
Заголовок : русский
Язык : Russian
Default : Нет
Forced : Нет

Текст #2
Идентификатор : 8
Формат : UTF-8
Идентификатор кодека : S_TEXT/UTF8
Идентификатор кодека/Информация : UTF-8 Plain Text
Заголовок : украинский
Язык : Ukrainian
Default : Нет
Forced : Нет

Текст #3
Идентификатор : 9
Формат : UTF-8
Идентификатор кодека : S_TEXT/UTF8
Идентификатор кодека/Информация : UTF-8 Plain Text
Заголовок : английский
Default : Нет
Forced : Нет

Меню
00:00:00.000 : en:Chapter 00
00:05:59.150 : en:Chapter 01
00:12:47.141 : en:Chapter 02
00:15:14.163 : en:Chapter 03
00:19:58.989 : en:Chapter 04
00:27:14.591 : en:Chapter 05
00:37:45.263 : en:Chapter 06
00:46:33.540 : en:Chapter 07
00:54:21.007 : en:Chapter 08
01:03:28.888 : en:Chapter 09
01:09:44.221 : en:Chapter 10
01:22:02.542 : en:Chapter 11

---[Information] [25.10.2013 9:49:06] avs [info]: 1920x816p 1:1 @ 24000/1001 fps (cfr)
---[Information] [25.10.2013 9:49:06] x264 [info]: using SAR=1/1
---[Information] [25.10.2013 9:49:06] x264 [info]: using cpu capabilities: MMX2 SSE2Fast SSSE3 SSE4.2
---[Information] [25.10.2013 9:49:06] x264 [info]: profile High, level 4.1
---[Information] [26.10.2013 1:57:40] x264 [info]: frame I:1023 Avg QP:17.05 size:219172
---[Information] [26.10.2013 1:57:40] x264 [info]: frame P:30110 Avg QP:17.94 size:105887
---[Information] [26.10.2013 1:57:40] x264 [info]: frame B:106651 Avg QP:20.18 size: 48107
---[Information] [26.10.2013 1:57:40] x264 [info]: consecutive B-frames: 2.1% 2.6% 9.9% 20.4% 15.3% 34.4% 7.8% 5.9% 1.6%
---[Information] [26.10.2013 1:57:40] x264 [info]: mb I I16..4: 12.7% 76.5% 10.8%
---[Information] [26.10.2013 1:57:40] x264 [info]: mb P I16..4: 2.5% 29.7% 2.0% P16..4: 27.3% 21.5% 9.8% 0.0% 0.0% skip: 7.1%
---[Information] [26.10.2013 1:57:40] x264 [info]: mb B I16..4: 0.2% 4.9% 0.2% B16..8: 41.4% 13.9% 3.7% direct:10.1% skip:25.6% L0:43.8% L1:43.0% BI:13.1%
---[Information] [26.10.2013 1:57:40] x264 [info]: 8x8 transform intra:88.0% inter:55.4%
---[Information] [26.10.2013 1:57:40] x264 [info]: coded y,uvDC,uvAC intra: 95.6% 94.2% 84.2% inter: 40.1% 38.5% 16.9%
---[Information] [26.10.2013 1:57:40] x264 [info]: i16 v,h,dc,p: 23% 7% 18% 51%
---[Information] [26.10.2013 1:57:40] x264 [info]: i8 v,h,dc,ddl,ddr,vr,hd,vl,hu: 8% 8% 13% 10% 13% 12% 12% 12% 13%
---[Information] [26.10.2013 1:57:40] x264 [info]: i4 v,h,dc,ddl,ddr,vr,hd,vl,hu: 7% 7% 4% 10% 16% 15% 15% 12% 15%
---[Information] [26.10.2013 1:57:40] x264 [info]: i8c dc,h,v,p: 59% 12% 12% 17%
---[Information] [26.10.2013 1:57:40] x264 [info]: Weighted P-Frames: Y:4.3% UV:3.2%
---[Information] [26.10.2013 1:57:40] x264 [info]: ref P L0: 46.6% 10.0% 25.2% 8.2% 8.9% 0.9% 0.0%
---[Information] [26.10.2013 1:57:40] x264 [info]: ref B L0: 75.4% 17.7% 5.3% 1.7%
---[Information] [26.10.2013 1:57:40] x264 [info]: ref B L1: 92.9% 7.1%
---[Information] [26.10.2013 1:57:40] x264 [info]: kb/s:11892.84
---[Information] [26.10.2013 1:57:40] encoded 137784 frames, 2.37 fps, 11892.84 kb/s
--[Information] [26.10.2013 1:57:43] Final statistics
---[Information] [26.10.2013 1:57:43] Constant Quality Mode: Quality 18 computed...
---[Information] [26.10.2013 1:57:43] Video Bitrate Obtained (approximate): 11894 kbit/s
--[Information] [26.10.2013 1:57:43] MediaInfo
---[Information] File: E:RipSpajdervik.2008.x264.BDRipSpajdervik.2008.x264.BDRip.1080p.mkvСкриншоты


ЗалилСубтитры 3: английские

Имеются неименованные главы/чаптеры.

Субтитры 1: русские
Видео: MPEG-4 AVC, 11.5 Mбит/с, 1920x816
Продолжительность: 01:35:46

Жанр: Фэнтези, семейный, приключения

Если у вас возникли проблемы с закачкой Спайдервик: Хроники / The Spiderwick Chronicles (2008) BDRip 1080p by msltel | D, P, A, перейдите по ссылке - там вы найдете решение своей проблемы.

Категория: Зарубежные фильмы

 

Скачать Спайдервик: Хроники / The Spiderwick Chronicles (2008) BDRip 1080p by msltel | D, P, A бесплатно без регистрации

 

Информация
Посетители, находящиеся в группе Гости, не могут оставлять комментарии к данной публикации.
 
 
Скачать Спайдервик: Хроники / The Spiderwick Chronicles (2008) BDRip 1080p by msltel | D, P, A бесплатно без регистрацииCopyright © 2019 .