Скачать Встреча на переправе (1963) VHSRip от New-Team бесплатно без регистрации





Об актёрах подробней

Перевод:В ролях:
Инга Шантырь, Геннадий Фролов, Игорь Цветков...
Продолжительность: 00:47:22

Видео: 704x528 (4:3), 25,000 кадров/сек, XviD ~ 1998 kbps avg, 0.215 bit/pixel
Формат видео: AVI

Год выпуска: 1963
Cубтитры: нет
Качество видео:Не требуется
Аудио: 48 kHz, Dolby Digital AC3 2.0, 192 kbps

Оригинальная аудиодорожка: русский

VHS
Раздача от:
MediaInfo
Общее
Полное имя : Vstrecha.na.pereprave.1963.VHSRip_[New-team]_by_AVP_Studio.avi
Формат : AVI
Формат/Информация : Audio Video Interleave
Размер файла : 745 Мбайт
Продолжительность : 47 м. 22 с.
Общий поток : 2199 Кбит/сек
Программа кодирования : VirtualDubMod 1.5.10.3 | www.virtualdub-fr.org || (build 2550/release)
Библиотека кодирования : VirtualDubMod build 2550/release

Видео
Идентификатор : 0
Формат : MPEG-4 Visual
Профиль формата : Advanced Simple@L5
Настройки формата : BVOP1 / Custom Matrix
Параметр BVOP формата : 1
Параметр QPel формата : Нет
Параметр GMC формата : Без точки перехода
Параметр матрицы формата : Выборочная
Идентификатор кодека : XVID
Идентификатор кодека/Подсказка : XviD
Продолжительность : 47 м. 22 с.
Битрейт : 1998 Кбит/сек
Ширина : 704 пикселя
Высота : 528 пикселей
Соотношение сторон : 4:3
Частота кадров : 25,000 кадров/сек
Цветовое пространство : YUV
Субдискретизация насыщенности : 4:2:0
Битовая глубина : 8 бит
Тип развёртки : Прогрессивная
Метод сжатия : С потерями
Бит/(Пиксели*Кадры) : 0.215
Размер потока : 677 Мбайт (91%)
Библиотека кодирования : XviD 73

Аудио
Идентификатор : 1
Формат : AC-3
Формат/Информация : Audio Coding 3
Коммерческое название : Dolby Digital
Идентификатор кодека : 2000
Продолжительность : 47 м. 22 с.
Вид битрейта : Постоянный
Битрейт : 192 Кбит/сек
Каналы : 2 канала
Channel layout : L R
Частота : 48,0 КГц
Частота кадров : 31,250 кадров/сек (1536 SPF)
Битовая глубина : 16 бит
Метод сжатия : С потерями
Размер потока : 65,0 Мбайт (9%)
Выравнивание : Разделение по промежуткам
Продолжительность промежутка : 40 мс. (1,00 видеокадр)
Время предзагрузки промежутка : 500 мс

Скриншоты

ЗалилПроизводство: Мосфильм

Исходник:AVPStudio ОценкаНикто ещё не поставил оценку КатегорияНаши фильмы Раздают0 Качают1 Сидер замечен07-06-2019 17:19:12 (9 часов назад) Добавлен18-03-2019 11:24:36 (3 месяца назад) Размер745.18 MB (781379584 Bytes)Описание:
Кончилась война. Демобилизованный солдат Чепурнов (Геннадий Фролов) едет к своей невесте Варе Карповой, которую знает по переписке. По пути на пароме Чепурнов знакомится с перевозчицей Клавдией. Молодая женщина знает его невесту и знает то, что Валентина писала не только Чепурнову. Но об этом она молчит — ей нравится задумчивый солдат, и она не хочет его расстраивать. А солдату нравится Клавдия, и он уже все знает про нее и знает то, что она одна растит сына. Но он едет к Валентине, потому что обещал. Долго Чепурнов там не задержится...




Страна: СССР
Жанр: короткометражка
Режиссер: Гавриил Егиазаров

VHSRip

Если у вас возникли проблемы с закачкой Встреча на переправе (1963) VHSRip от New-Team, перейдите по ссылке - там вы найдете решение своей проблемы.

Категория: Наши фильмы

 

Скачать Встреча на переправе (1963) VHSRip от New-Team бесплатно без регистрации

 

Информация
Посетители, находящиеся в группе Гости, не могут оставлять комментарии к данной публикации.
 
 
Скачать Встреча на переправе (1963) VHSRip от New-Team бесплатно без регистрацииCopyright © 2019 .