Скачать Спасибо, папа / Thank you, dad (2014) WEB-DLRip от ivandubskoj бесплатно без регистрации






Информация о фильме
Год выпуска: 2014
Автор рипа - ivandubskoj ЗалилНазвание: Спасибо, папа (Thank you, папа)
Жанр: Комедия, мелодрама
Выпущено: Армения, Team Productions
Режиссёр: Грач Кешишян

Описание: В свой день рождения молодая армянка - Вирджи, живущая в Нью-Йорке, получает неожиданный подарок - наследство в 50 миллионов долларов. Только по завещанию отца, которого она не видела больше 10 лет, ей надо выполнить одно условие: найти армянина с редчайшим именем Баргевос и выйти за него замуж. На все это ей дается только месяц. Чтобы встретить своё «счастье», Вирджи через несколько дней вылетает в Армению, где, как ей удалось выяснить, живёт один-единственный Баргевос.



Продолжительность: 01:35:21
Формат видео: AVI
Язык: Русский + Профессиональный многоголосый (на английскую речь)

Аудио: Русский, MP3, 48000 Гц, 128 Кбит/с, 2 канала (Стерео)



MediaInfo
General
Complete name : Spasibo.papa.2014.WEB-DLRip.745MB.avi
Format : AVI
Format/Info : Audio Video Interleave
File size : 746 MiB
Duration : 1h 35mn
Overall bit rate : 1 093 Kbps
Writing application : VirtualDubMod 1.5.10.3 (build 2550/release)
Writing library : VirtualDubMod build 2550/release
Copyright : rip by ivandubskoj

Video
ID : 0
Format : MPEG-4 Visual
Format profile : Advanced Simple@L5
Format settings, BVOP : 2
Format settings, QPel : No
Format settings, GMC : No warppoints
Format settings, Matrix : Custom
Codec ID : XVID
Codec ID/Hint : XviD
Duration : 1h 35mn
Bit rate : 956 Kbps
Width : 640 pixels
Height : 320 pixels
Display aspect ratio : 2.000
Frame rate : 25.000 fps
Color space : YUV
Chroma subsampling : 4:2:0
Bit depth : 8 bits
Scan type : Progressive
Compression mode : Lossy
Bits/(Pixel*Frame) : 0.187
Stream size : 652 MiB (87%)
Writing library : XviD 73

Audio
ID : 1
Format : MPEG Audio
Format version : Version 1
Format profile : Layer 3
Codec ID : 55
Codec ID/Hint : MP3
Duration : 1h 35mn
Bit rate mode : Constant
Bit rate : 128 Kbps
Channel(s) : 2 channels
Sampling rate : 48.0 KHz
Compression mode : Lossy
Stream size : 87.3 MiB (12%)
Alignment : Aligned on interleaves
Interleave, duration : 40 ms (1.00 video frame)
Interleave, preload duration : 504 ms
Writing library : LAME3.99r
Encoding settings : -m s -V 4 -q 0 -lowpass 17 -b 128
Скриншоты



Качество видео: WEB-DLRip [Исходник: WEB-DL (720p)]

В ролях: Криста Донарго, Луиза Гамбарян, Майрануш Григорян, Дэвид Акопян, Левон Арутюнян, Джордж Ховакимян, Джения Мкртумян, Левон Мурадян, Еро Мурян, Нарек Нерсисян

Видео: XviD, 956 Кбит/с, 640x320 (2.000), 25 кадр/с
Кодек: XviD
Оригинальное название: Thank you, dad
ivandubskoj Оценка7 из 10 (1 голосов, самая низкая оценка - 7, самая высокая - 7) КатегорияЗарубежные фильмы Раздают0 Качают0 Сидер замечен18-05-2019 20:19:10 (20 дней назад) Добавлен12-02-2015 22:31:22 (53 месяца назад) Размер745.70 MB (781920256 Bytes)

Если у вас возникли проблемы с закачкой Спасибо, папа / Thank you, dad (2014) WEB-DLRip от ivandubskoj, перейдите по ссылке - там вы найдете решение своей проблемы.

Категория: Зарубежные фильмы

 

Скачать Спасибо, папа / Thank you, dad (2014) WEB-DLRip от ivandubskoj бесплатно без регистрации

 

Информация
Посетители, находящиеся в группе Гости, не могут оставлять комментарии к данной публикации.
 
 
Скачать Спасибо, папа / Thank you, dad (2014) WEB-DLRip от ivandubskoj бесплатно без регистрацииCopyright © 2019 .