Скачать Невеста Франкенштейна / Bride of Frankenstein (1935) BDRip 720p | P бесплатно без регистрации






Информация о фильме
В ролях: Борис Карлофф, Колин Клайв, Вэлери Хобсон, Эльза Лэнчестер, О. П. Хегги, Уна О'Коннор

Аудио 2: Russian; AC3; 48.0 KHz; 2ch; 192 Kbps; DVD Classic
Аудио 3: English; FLAC; 48.0 KHz; 2ch

Скриншоты
MediaInfoFormat : Matroska
Format version : Version 2
File size : 4.13 GiB
Duration : 1h 14mn
Overall bit rate mode : Variable
Overall bit rate : 7 900 Kbps
Encoded date : UTC 2012-10-14 17:15:48
Writing application : mkvmerge v5.0.1 ('Es ist Sommer') built on Oct 9 2011 11:55:43
Writing library : libebml v1.2.2 + libmatroska v1.3.0

Video
ID : 1
Format : AVC
Format/Info : Advanced Video Codec
Format profile : High@L4.1
Format settings, CABAC : Yes
Format settings, ReFrames : 11 frames
Codec ID : V_MPEG4/ISO/AVC
Duration : 1h 14mn
Width : 970 pixels
Height : 720 pixels
Display aspect ratio : 4:3
Frame rate : 23.976 fps
Color space : YUV
Chroma subsampling : 4:2:0
Bit depth : 8 bits
Scan type : Progressive
Writing library : x264 core 128 r2216kMod 198a7ea
Encoding settings : cabac=1 / ref=11 / deblock=1:-3:-3 / analyse=0x3:0x113 / me=umh / subme=9 / psy=1 / fade_compensate=0.00 / psy_rd=1.20:0.00 / mixed_ref=1 / me_range=16 / chroma_me=1 / trellis=2 / 8x8dct=1 / cqm=0 / deadzone=21,11 / fast_pskip=0 / chroma_qp_offset=-2 / threads=6 / lookahead_threads=1 / sliced_threads=0 / nr=0 / decimate=0 / interlaced=0 / bluray_compat=0 / constrained_intra=0 / bframes=8 / b_pyramid=2 / b_adapt=2 / b_bias=0 / direct=3 / weightb=1 / open_gop=0 / weightp=2 / keyint=250 / keyint_min=23 / scenecut=40 / intra_refresh=0 / rc=crf / mbtree=0 / crf=18.0000 / qcomp=0.80 / qpmin=0 / qpmax=69 / qpstep=4 / ip_ratio=1.30 / pb_ratio=1.10 / aq=1:0.70
Language : English
Default : No
Forced : No

Audio #1
ID : 2
Format : AC-3
Format/Info : Audio Coding 3
Mode extension : CM (complete main)
Format settings, Endianness : Big
Codec ID : A_AC3
Duration : 1h 14mn
Bit rate mode : Constant
Bit rate : 192 Kbps
Channel(s) : 2 channels
Channel positions : Front: L R
Sampling rate : 48.0 KHz
Bit depth : 16 bits
Compression mode : Lossy
Stream size : 103 MiB (2%)
Title : MVO Universal Pictures
Language : Russian
Default : Yes
Forced : No

Audio #2
ID : 3
Format : AC-3
Format/Info : Audio Coding 3
Mode extension : CM (complete main)
Format settings, Endianness : Big
Codec ID : A_AC3
Duration : 1h 14mn
Bit rate mode : Constant
Bit rate : 192 Kbps
Channel(s) : 2 channels
Channel positions : Front: L R
Sampling rate : 48.0 KHz
Bit depth : 16 bits
Compression mode : Lossy
Stream size : 103 MiB (2%)
Title : MVO DVD Classic
Language : Russian
Default : No
Forced : No

Audio #3
ID : 4
Format : FLAC
Format/Info : Free Lossless Audio Codec
Codec ID : A_FLAC
Duration : 1h 14mn
Bit rate mode : Variable
Channel(s) : 2 channels
Sampling rate : 48.0 KHz
Bit depth : 16 bits
Writing library : libFLAC 1.2.1 (UTC 2007-09-17)
Language : English
Default : No
Forced : No

Text #1
ID : 5
Format : UTF-8
Codec ID : S_TEXT/UTF8
Codec ID/Info : UTF-8 Plain Text
Language : Russian
Default : No
Forced : No

Text #2
ID : 6
Format : UTF-8
Codec ID : S_TEXT/UTF8
Codec ID/Info : UTF-8 Plain Text
Language : English
Default : No
Forced : No

Menu
00:00:00.000 : en:Chapter 1
00:01:35.053 : en:Chapter 2
00:05:28.828 : en:Chapter 3
00:07:56.518 : en:Chapter 4
00:12:42.512 : en:Chapter 5
00:17:31.634 : en:Chapter 6
00:21:12.813 : en:Chapter 7
00:25:38.996 : en:Chapter 8
00:30:53.894 : en:Chapter 9
00:34:51.548 : en:Chapter 10
00:44:46.475 : en:Chapter 11
00:51:13.612 : en:Chapter 12
00:56:11.702 : en:Chapter 13
01:00:16.363 : en:Chapter 14
01:03:24.926 : en:Chapter 15
01:09:18.863 : en:Chapter 16
01:11:07.263 : en:Chapter 17
01:14:13.240 : en:Chapter 18 ОценкаНикто ещё не поставил оценку КатегорияЗарубежные фильмы Раздают2 Качают0 Сидер замечен07-06-2019 22:19:11 (38 минут назад) Добавлен04-12-2016 19:22:10 (31 месяц назад) Размер4.13 GB (4430453303 Bytes)Жанр: ужасы, фантастика, драма, комедия
Перевод 2: Профессиональный (многоголосый, закадровый) DVD Classic
Оригинальная аудиодорожка: английский

Оригинальное название: Bride of Frankenstein
Страна: США
Перевод 1: Профессиональный (многоголосый, закадровый) Universal Pictures
Название: Невеста Франкенштейна
Описание: Отвергнутый всеми монстр ищет себе пару. Доктор Франкенштейн приходит на помощь и создает заветную подругу.



Видео: 970x720 (4:3); 7173 Kbps; 23.976 fps; 0.428 bpp
Режиссер: Джеймс Уэйл
Cубтитры: русские, английские
Год выхода: 1935
Кодек: x264
Продолжительность: 01:14:42
Аудио 1: Russian; AC3; 48.0 KHz; 2ch; 192 Kbps; Universal Pictures
Качество: BDRip 720p

Если у вас возникли проблемы с закачкой Невеста Франкенштейна / Bride of Frankenstein (1935) BDRip 720p | P, перейдите по ссылке - там вы найдете решение своей проблемы.

Категория: Зарубежные фильмы

 

Скачать Невеста Франкенштейна / Bride of Frankenstein (1935) BDRip 720p | P бесплатно без регистрации

 

Информация
Посетители, находящиеся в группе Гости, не могут оставлять комментарии к данной публикации.
 
 
Скачать Невеста Франкенштейна / Bride of Frankenstein (1935) BDRip 720p | P бесплатно без регистрацииCopyright © 2019 .