Скачать Призраки / Ghosted (2011) BDRip-AVC от ExKinoRay бесплатно без регистрации






Информация о фильме
Название: Призраки
Видео: MPEG-4 AVC, 2622 Кбит/с, 1024x436
Enigma2010 Оценка10 из 10 (1 голосов, самая низкая оценка - 10, самая высокая - 10) КатегорияЗарубежные фильмы Раздают0 Качают1 Сидер замечен26-10-2017 14:19:07 (20 месяцев назад) Добавлен17-04-2013 16:21:50 (75 месяцев назад) Размер2.42 GB (2596345083 Bytes)В ролях: Джон Линч, Дэвид Скофилд, Мартин Компстон, Крэйг Паркинсон, Арт Малик, Аманда Аббингтон, Хью Куарши, Питер Баррет, Джемма Болт

Оригинальное название: Ghosted
Продолжительность: 01:46:26
Семпл

Скриншоты


Жанр: Триллер, драма
Год выхода: 2011
Дата релиза: 17.04.2013

Качество: BDRip (AVC) (Blu-Ray Remux (1080p))
Авторы релиза: ЗалилО фильме:
Главный герой по имени Джек спокойно отсиживал свой срок до того момента, пока жена не решила его бросить в день годовщины смерти их ребенка. Такой поворот событий выбивает Джека из колеи. Вскоре он знакомится с новичком, который еще совсем молодой, но уже потерял смысл жизни. Получится ли у Джека помочь ему пережить все это и устоять при этом самому?



Режиссер: Крэйг Вивейрос
Релиз от:

Перевод: Профессиональный двухголосый
Страна: Великобритания, Motion Picture House, London Film and Media
Кодек: H.264
Звук: Русский (AC3, 2 ch, 192 Кбит/с), английский (AC3, 6 ch, 448 Кбит/с)

MediaInfoОбщее
Уникальный идентификатор : 250559445864164637297971014977225702294 (0xBC7FFE746AD2E19DAD7FDF33B0433B96)
Полное имя : D:3Prizraki.2011.x264.BDRip.(AVC).ExKinoRay.mkv
Формат : Matroska
Размер файла : 2,42 Гбайт
Продолжительность : 1 ч. 46 м.
Общий поток : 3252 Кбит/сек
Название фильма : Prizraki.2011.x264.BDRip.(AVC).ExKinoRay
Дата кодирования : UTC 2013-04-15 18:34:54
Программа кодирования : mkvmerge v4.0.0 ('The Stars were mine') сборка от Jun 6 2010 16:18:42
Библиотека кодирования : libebml v1.0.0 + libmatroska v1.0.0

Видео
Идентификатор : 1
Формат : AVC
Формат/Информация : Advanced Video Codec
Профиль формата : High@L4.1
Параметр CABAC формата : Да
Параметр ReFrames формата : 8 кадров
Идентификатор кодека : V_MPEG4/ISO/AVC
Продолжительность : 1 ч. 46 м.
Битрейт : 2622 Кбит/сек
Ширина : 1024 пикс.
Высота : 436 пикс.
Соотношение сторон : 2,35:1
Частота кадров : 23,976 кадр/сек
Цветовое пространство : YUV
Подвыборка цветности : 4:2:0
Битовая глубина : 8 бит
Тип развёртки : Прогрессивная
Бит/(Пиксели*Кадры) : 0.245
Размер потока : 1,89 Гбайт (78%)
Заголовок : Rip by Enigma-Vladislav71
Библиотека кодирования : x264 core 92 r1510 33d382a
Настройки программы : cabac=1 / ref=8 / deblock=1:-2:-2 / analyse=0x3:0x133 / me=umh / subme=10 / psy=1 / psy_rd=1.00:0.00 / mixed_ref=1 / me_range=48 / chroma_me=1 / trellis=2 / 8x8dct=1 / cqm=0 / deadzone=21,11 / fast_pskip=0 / chroma_qp_offset=-2 / threads=3 / sliced_threads=0 / nr=0 / decimate=0 / interlaced=0 / constrained_intra=0 / bframes=8 / b_pyramid=2 / b_adapt=2 / b_bias=0 / direct=3 / wpredb=1 / wpredp=2 / keyint=240 / keyint_min=23 / scenecut=40 / intra_refresh=0 / rc=2pass / mbtree=0 / bitrate=2622 / ratetol=1.0 / qcomp=0.60 / qpmin=10 / qpmax=51 / qpstep=4 / cplxblur=20.0 / qblur=0.5 / ip_ratio=1.40 / pb_ratio=1.30 / aq=1:1.00

Аудио #1
Идентификатор : 2
Формат : AC-3
Формат/Информация : Audio Coding 3
Расширение режима : CM (complete main)
Идентификатор кодека : A_AC3
Продолжительность : 1 ч. 46 м.
Вид битрейта : Постоянный
Битрейт : 192 Кбит/сек
Каналы : 2 канала
Расположение каналов : Front: L R
Частота : 48,0 КГц
Битовая глубина : 16 бит
Метод сжатия : С потерями
Размер потока : 146 Мбайт (6%)
Заголовок : НТВ+
Язык : Russian

Аудио #2
Идентификатор : 3
Формат : AC-3
Формат/Информация : Audio Coding 3
Расширение режима : CM (complete main)
Идентификатор кодека : A_AC3
Продолжительность : 1 ч. 46 м.
Вид битрейта : Постоянный
Битрейт : 448 Кбит/сек
Каналы : 6 каналов
Расположение каналов : Front: L C R, Side: L R, LFE
Частота : 48,0 КГц
Битовая глубина : 16 бит
Метод сжатия : С потерями
Размер потока : 341 Мбайт (14%)
Язык : English


Если у вас возникли проблемы с закачкой Призраки / Ghosted (2011) BDRip-AVC от ExKinoRay, перейдите по ссылке - там вы найдете решение своей проблемы.

Категория: Зарубежные фильмы

 

Скачать Призраки / Ghosted (2011) BDRip-AVC от ExKinoRay бесплатно без регистрации

 

Информация
Посетители, находящиеся в группе Гости, не могут оставлять комментарии к данной публикации.
 
 
Скачать Призраки / Ghosted (2011) BDRip-AVC от ExKinoRay бесплатно без регистрацииCopyright © 2019 .