Скачать Пропавшая грамота (1945) SATRip от New-Team бесплатно без регистрации





Режиссер: Валентина Брумберг, Ламис Бредис, Зинаида Брумберг

Перевод:Оригинальная аудиодорожка: русский

Источник:Производство: Союзмультфильм

Жанр: мультфильм, короткометражка, фэнтези
Раздача от:
MediaInfo
Общее
Полное имя : Propavshaya.gramota.1945.SATRip_[New-team]_by_AVP_Studio.avi
Формат : AVI
Формат/Информация : Audio Video Interleave
Размер файла : 448 Мбайт
Продолжительность : 40 м.
Общий поток : 1559 Кбит/сек
Программа кодирования : VirtualDubModRus 1.5.10.2 (build 2542/release)
Библиотека кодирования : VirtualDubMod build 2542/release

Видео
Идентификатор : 0
Формат : MPEG-4 Visual
Профиль формата : Advanced Simple@L5
Параметр BVOP формата : 1
Параметр QPel формата : Нет
Параметр GMC формата : Без точки перехода
Параметр матрицы формата : Выборочная
Идентификатор кодека : XVID
Идентификатор кодека/Подсказка : XviD
Продолжительность : 40 м.
Битрейт : 1357 Кбит/сек
Ширина : 656 пикселей
Высота : 496 пикселей
Соотношение сторон : 4:3
Частота кадров : 25,000 кадров/сек
Цветовое пространство : YUV
Субдискретизация насыщенности : 4:2:0
Битовая глубина : 8 бит
Тип развёртки : Прогрессивная
Метод сжатия : С потерями
Бит/(Пиксели*Кадры) : 0.167
Размер потока : 390 Мбайт (87%)
Библиотека кодирования : XviD 73

Аудио
Идентификатор : 1
Формат : AC-3
Формат/Информация : Audio Coding 3
Расширение режима : CM (complete main)
Параметр Endianness формата : Big
Идентификатор кодека : 2000
Продолжительность : 40 м.
Вид битрейта : Постоянный
Битрейт : 192 Кбит/сек
Каналы : 2 канала
Расположение каналов : Front: L R
Частота : 48,0 КГц
Битовая глубина : 16 бит
Метод сжатия : С потерями
Размер потока : 55,1 Мбайт (12%)
Выравнивание : Разделение по промежуткам
Продолжительность промежутка : 40 мс. (1,00 видеокадр)
Время предзагрузки промежутка : 500 мс

Скриншоты

ЗалилAVPStudio Оценка10 из 10 (1 голосов, самая низкая оценка - 10, самая высокая - 10) КатегорияМультипликация Раздают1 Качают0 Сидер замечен30-05-2019 17:19:14 (8 дней назад) Добавлен20-04-2015 20:13:16 (50 месяцев назад) Размер447.62 MB (469366784 Bytes)Видео: 656x496 (4:3), 25 fps, XviD ~ 1357 kbps avg, 0.167 bit/pixel
Роли озвучивали:
Сергей Мартинсон, Леонид Пирогов, Михаил Яншин, Борис Ливанов, Василий Качалов...

Не требуется
Cубтитры: нет
Продолжительность: 00:40:09

DVB
Описание:
мультфильм о том, как казак отправился в Петербург отвезти грамоту Царице. Целая цепь приключений и препятствий возникает на его пути, но казак преодолевает их и достигает цели . Жарким августом, к царице, с гетманской грамотой отправляют в столицу казака. По дороге заводит он знакомство с разгульным запорожцем. На привале новый друг рассказал, что продал душу дьяволу и ждёт расплату. Ночью казак не стал ложиться спать, решил посмотреть, что дальше будет. Как стемнело, на место привала пришёл чёрт, увёл лошадь, а с ней и царскую грамоту. Пришлось гонцу искать пропажу в переполненном нечистой силой лесу. На утро распрощался казак со знакомцем и, уже без остановок, помчался в Петербург...



Качество видео:SATRip
Формат видео: AVI

Страна: СССР
Год выпуска: 1945
Аудио: 48 kHz, Dolby Digital AC3 2.0, 192 kbps

Если у вас возникли проблемы с закачкой Пропавшая грамота (1945) SATRip от New-Team, перейдите по ссылке - там вы найдете решение своей проблемы.

Категория: Мультипликация

 

Скачать Пропавшая грамота (1945) SATRip от New-Team бесплатно без регистрации

 

Информация
Посетители, находящиеся в группе Гости, не могут оставлять комментарии к данной публикации.
 
 
Скачать Пропавшая грамота (1945) SATRip от New-Team бесплатно без регистрацииCopyright © 2019 .