Скачать Агата и правда об убийстве / Agatha and the Truth of Murder (2018) HDRip-AVC от ExKinoRay | HDRezka Studio бесплатно без регистрации






Качество: HDRip-AVC
Режиссер: Терри Лоан
Видео: MPEG-4 AVC, 720x360 (2.00:1), 25.000 fps, 1927 Kbps, 0.297 bit/pixel
Субтитры: English Full


Перевод: Профессиональный (многоголосый, закадровый) |RUS |

ОтчетМедиаИнфо
General
Unique ID : 233559707573131219293334177579198800752 (0xAFB5F6A56DC0B2E18DD484E24F5F6370)
Complete name : D:Agatha.and.the.Truth.of.Murder.2018.MVO.HDRip.AVC.ExKinoRay.mkv
Format : Matroska
Format version : Version 2
File size : 1.37 GiB
Duration : 1 h 32 min
Overall bit rate : 2 120 kb/s
Movie name : Agatha and the truth of murder 2018 from ExKinoRay
Encoded date : UTC 2019-03-03 03:14:50
Writing application : mkvmerge v5.6.0 ('Kenya Kane') built on May 27 2012 16:44:04
Writing library : libebml v1.2.3 + libmatroska v1.3.0

Video
ID : 1
Format : AVC
Format/Info : Advanced Video Codec
Format profile : High@L4.1
Format settings, CABAC : Yes
Format settings, ReFrames : 12 frames
Codec ID : V_MPEG4/ISO/AVC
Duration : 1 h 32 min
Bit rate : 1 927 kb/s
Width : 720 pixels
Height : 360 pixels
Display aspect ratio : 2.000
Frame rate mode : Constant
Frame rate : 25.000 FPS
Color space : YUV
Chroma subsampling : 4:2:0
Bit depth : 8 bits
Scan type : Progressive
Bits/(Pixel*Frame) : 0.297
Stream size : 1.22 GiB (89%)
Title : Enigma
Writing library : x264 core 152 r2851 ba24899
Encoding settings : cabac=1 / ref=12 / deblock=1:-2:-2 / analyse=0x3:0x113 / me=umh / subme=10 / psy=1 / psy_rd=1.01:0.05 / mixed_ref=1 / me_range=32 / chroma_me=1 / trellis=2 / 8x8dct=1 / cqm=0 / deadzone=21,11 / fast_pskip=0 / chroma_qp_offset=-3 / threads=11 / lookahead_threads=2 / sliced_threads=0 / nr=0 / decimate=0 / interlaced=0 / bluray_compat=0 / constrained_intra=0 / bframes=10 / b_pyramid=2 / b_adapt=2 / b_bias=0 / direct=3 / weightb=1 / open_gop=0 / weightp=2 / keyint=250 / keyint_min=25 / scenecut=40 / intra_refresh=0 / rc=2pass / mbtree=0 / bitrate=1927 / ratetol=1.0 / qcomp=0.60 / qpmin=0 / qpmax=51 / qpstep=4 / cplxblur=20.0 / qblur=0.5 / ip_ratio=1.30 / pb_ratio=1.20 / aq=2:0.90
Default : Yes
Forced : No
Color range : Limited
Color primaries : BT.709
Transfer characteristics : BT.709
Matrix coefficients : BT.709

Audio
ID : 2
Format : AC-3
Format/Info : Audio Coding 3
Mode extension : CM (complete main)
Format settings, Endianness : Big
Codec ID : A_AC3
Duration : 1 h 32 min
Bit rate mode : Constant
Bit rate : 192 kb/s
Channel(s) : 2 channels
Channel positions : Front: L R
Sampling rate : 48.0 kHz
Frame rate : 31.250 FPS (1536 spf)
Compression mode : Lossy
Stream size : 127 MiB (9%)
Title : MVO (HDRezka)
Language : Russian
Default : Yes
Forced : No

Text
ID : 3
Format : UTF-8
Codec ID : S_TEXT/UTF8
Codec ID/Info : UTF-8 Plain Text
Language : English
Default : No
Forced : No

Menu
00:00:00.000 : en:00:00:00.000
00:11:25.240 : en:00:11:25.240
00:25:03.280 : en:00:25:03.280
00:33:00.880 : en:00:33:00.880
00:45:37.480 : en:00:45:37.480
01:01:17.360 : en:01:01:17.360
01:12:44.360 : en:01:12:44.360
01:25:57.200 : en:01:25:57.200







Автор релиза: ЗалилАудио: 48 kHz, AC3, 2.0, 192 Kbps |HDRezka Studio
Название: Агата и правда об убийстве
Формат: MKV
Enigma2010 Оценка7.2 из 10 (5 голосов, самая низкая оценка - 1, самая высокая - 10) КатегорияЗарубежные фильмы Раздают18 Качают2 Сидер замечен08-06-2019 0:19:11 (4 минуты назад) Добавлен03-03-2019 7:37:21 (3 месяца назад) Размер1.37 GB (1467292359 Bytes)В ролях: Ралф Айнесон, Рут Брэдли, Тим МакИннерни, Блейк Харрисон, Пиппа Хэйвуд, Майкл МакЭлхаттон, Бебе Кейв, Брайан МакКарди, Дин Эндрюс, Саманта Спиро

Оригинальное название: Agatha and the Truth of Murder
БЕЗ КАКОЙ-ЛИБО РЕКЛАМЫ!

Жанр: Криминал
Описание:
Действие фильма разворачивается в 1926 году, когда Агата Кристи оказалась в серьезном личном и профессиональном кризисе. Муж сообщил писательнице о своей измене и попросил о разводе, а новая книга оказалась в подвешенном состоянии. Во время попыток найти альтернативный путь развития сюжета для романа и отвлечься от семейных неурядиц, Агата встречается с женщиной, желающей найти убийцу Флоренции Шор. Изначально Кристи неохотно соглашается помогать частному расследованию, а затем исчезает на одиннадцать дней, чтобы раскрыть реальное преступление...



Продолжительность: 01:32:17
Выпущено: Великобритания, Darlow Smithson Productions
Релиз от:

Год выпуска: 2018

Если у вас возникли проблемы с закачкой Агата и правда об убийстве / Agatha and the Truth of Murder (2018) HDRip-AVC от ExKinoRay | HDRezka Studio, перейдите по ссылке - там вы найдете решение своей проблемы.

Категория: Зарубежные фильмы

 

Скачать Агата и правда об убийстве / Agatha and the Truth of Murder (2018) HDRip-AVC от ExKinoRay | HDRezka Studio бесплатно без регистрации

 

Информация
Посетители, находящиеся в группе Гости, не могут оставлять комментарии к данной публикации.
 
 
Скачать Агата и правда об убийстве / Agatha and the Truth of Murder (2018) HDRip-AVC от ExKinoRay | HDRezka Studio бесплатно без регистрацииCopyright © 2019 .