Скачать Mount Show - Все выпуски [01-107] (2015-2017) WEBRip 720p бесплатно без регистрации






качество: WEBRip
Внимание! Раздача ведётся путём добавления новых серий


Скриншоты Залилboar-hooligan ОценкаНикто ещё не поставил оценку КатегорияЮмор Раздают0 Качают1 Сидер замечен28-05-2019 17:19:12 (10 дней назад) Добавлен03-08-2017 14:34:18 (22 месяца назад) Размер16.38 GB (17591943168 Bytes)Видео: 1280x720(16:9),25.000 FPS,Advanced Video Codec AVC ~1 328 kb/s
Перевод: Не требуется
Жанр: Политико-юмористическое шоу
Продолжительность: ~ 00:20:00
Аудио: 44.1 kHz, Mp3 Dolby Digital, 2/0 (L,R) ch, ~128 kbps
Список выпусков
Выпуск 01
Выпуск 02
Выпуск 03
(04) Прибалтийская паранойя
(05) Агенты Кремля они везде!
(06) Мова и Афро-Украинский союз
(07) Что там у москалей Или как хохлы парад смотрели
(08) Пошла Украина с молотка
(09) Мишка политический гастарбайтер
(010) Вселенная Порошенко
(011) Обамка на выданье
(012) Путин хочет меня убить
(013) Пушкин - агент кремля
(014) Королева оборонсервиса и ее подданные
(015) Мордор и братство шоколадного Эльфа
(016) Барин Марий Эл и его крепостные
(017) Яценюк и полная зрадница
(018) Порошенко Европе без Украины капец
(019) Сенатор Маккейн с любовью к России
(020) Горе-вояки Пентагона и предвыборная клоунада США
(021) Империя наносит хреновый удар
(022) Обамка пугает республиканцев Путиным
(023) Злобная старушка Клинтон о России
(024) Просчет турецкого султана
(025) На воре и феска горит
(026) У госдеповской истерички бомбануло
(027) Диктатор Аладдин должен уйти! Свободу Аграбе!
(028) Порошенко король фотошопа
(029) США выбирают президента для Путина
(030) Коррумпированный Путин Какие ваши доказательства
(031) Украина и интеллект Яценюка
(032) Патриарх и Папа 1000 лет не виделись
(033) Украина це Россия
(034) Саратовский iPhone 7
(035) На лабутенах и в охренительных трусах
(036) Трамп! Просто Дональд Трамп!
(037) Ядерный Ким Чен Ын
(038) Цыганский бунт!
(039) Приключения Обамы на Кубе
(040) Хиллари Клинтон соучредитель ИГИЛ
(041) Сеня всё Отставка Яценюка
(042) Шуганутый эсминец Дональд Кук
(043) Эпичное десантирование горе-вояк США в Германии
(044) Бракованная демократия США
(045) Папа Римский и георгиевская ленточка
(046) Как теперь правильно на Евровидение или в Евровидение
(047) Игра престолов и депутат Петров
(048) Савченко и два литра водки
(049) Савченко - агент Кремля
(050) Подлодка Путина или как сходят с ума британские СМИ
(051) Российские болельщики - агенты Кремля
(052) Brexit - во всем виноват Путин
(053) Как Порошенко НАТО учил воевать
(054) Pokemon go и бредни депутата Петрова
(055) Медведев и его твиттер
(056) Хиллари Клинтон и Тереза Мэй - две злобные ведьмы
(057) Дональд Трамп - агент Путина
(058) Ким Чен Ын и ядерный удар по США
(059) Приключения ПАРНАС на Украине
(060) Клинтон Путин - крестный отец
(061) Как Обаму исключительно принимали на G20
(062) Ким Чен Ын рванул новую ядерную бомбу
(063) Путин и Трамп отравили Хиллари Клинтон
(064) Хиллари Клинтон - агент Кремля
(065) Пентагон клепает фальшивые видосики про террористов
(066) Муха на Клинтон - это беспилотник Путина
(067) Лев Лещенко - спонсор Дональда Трампа
(068) Украинская база на Луне
(069) Директор ФБР - агент Путина
(070) День выборов в США Клинтон или Трамп
(071) Улюкаев доулюлюкался
(072) Российские грачи-оккупанты атакуют Украину
(073) Миссия «Табор уходит на Марс» провалена Виновата Россия
(074) Саакашвили и сборы средств на его РУХлядь
(075) Как в незалежной Трампу самолет впаривали
(076) Путин лично хакнул США и назначил Трампа президентом
(077) Литву испугал российский подъемный кран! Кран Кремля
(078) Цирк под названием разведка США Сказ о том, как тупили ЦРУ, ФБР и АНБ
(079) Байден Украине до демократии как до луны
(080) Саакашвили в кустах наблюдал за инаугурацией Трампа
(081) Литва хочет отобрать у России Калининград
(082) Саакашвили решил диктовать условия Европе
(083) Запорожские казаки - потомки египетских фараонов
(084) Псаки учит Трампа не врать
(085) Хиллари Клинтон использует ведьм против Трампа
(086) Навальный vs Медведев
(087) Медведев ответил Навальному
(088) Самолет Порошенко или новый сезон сериала Крутое пике
(089) НАТО заявило, что Mount Show - это оружие Кремля
(090) Медведев ответил Он вам не компот
(091) Трамп больше не наш
(092) Дональд Трамп vs Ким Чен Ын
(093) Ким Чен Ын обещал уничтожить авианосец Трампа
(094) Карапуз Ким и Дональд встретятся
(095) Кличко и торжественное открытие «нанотуалета»
(096) Задница на Евровидении и авианосец КНР Пипи Ся
(097) Маккейн оскорбил Лаврова и Путина
(098) Оказывается, Зенит-Арена не такая уж и дорогая
(099) Турчинов готовится взять Москву
(100) Древнегреческая Украина и набезвизенный Порошенко
(101) Чемодан, вокзал, Евросоюз
(102) Мишаня Саакашвили требует у Педро 50 евро
(103) Как Доня Трамп развел Педро на уголь
(104) Саммит G20 и о том, как ОБСЕ потребовал вернуть Крым
(105) Как Незалежная вмешивалась в выборы США
(106) Как Батьку фантастично встречали в Незалежной
(107) Медведь вышел из берлоги Наш ответ санкциям США

MediaInfo
General
Complete name : D:ПередачиMount ShowВыпуски 51-60(055) Медведев и его твиттер.avi
Format : AVI
Format/Info : Audio Video Interleave
File size : 179 MiB
Duration : 17 min
Overall bit rate : 1 466 kb/s
Writing application : VirtualDubMod 1.5.10.3 | www.virtualdub-fr.org || (build 2550/release)
Writing library : VirtualDubMod build 2550/release

Video
ID : 0
Format : AVC
Format/Info : Advanced Video Codec
Format profile : Main@L3.1
Format settings, CABAC : Yes
Format settings, ReFrames : 3 frames
Codec ID : h264
Duration : 17 min
Bit rate : 1 328 kb/s
Width : 1 280 pixels
Height : 720 pixels
Display aspect ratio : 16:9
Frame rate mode : Variable
Frame rate : 25.000 FPS
Color space : YUV
Chroma subsampling : 4:2:0
Bit depth : 8 bits
Scan type : Progressive
Bits/(Pixel*Frame) : 0.058
Stream size : 162 MiB (91%)
Color range : Limited
Color primaries : BT.709
Transfer characteristics : BT.709
Matrix coefficients : BT.709

Audio
ID : 1
Format : MPEG Audio
Format version : Version 1
Format profile : Layer 3
Codec ID : 55
Codec ID/Hint : MP3
Duration : 17 min
Bit rate mode : Constant
Bit rate : 128 kb/s
Channel(s) : 2 channels
Sampling rate : 44.1 kHz
Compression mode : Lossy
Stream size : 15.6 MiB (9%)
Alignment : Split accross interleaves
Interleave, duration : 40 ms (1.00 video frame)
Interleave, preload duratio : 500 ms
Writing library : LAME3.99r
Encoding settings : -m s -V 4 -q 2 -lowpass 17 -b 128

Описание: Mount Show - информационно-юмористический и развлекательно-аналитический проект о том, что волнует всех и каждого в нашей стране.
Политика, культура, общество – под прицелом нашего внимания. Маунт-шоу - все самое актуальное, интересное с высоты птичьего полета, потому что нам с гор виднее.
Приятного просмотра и здорового смеха.

формат: AVI
Русские субтитры: нет

Страна: Россия
Дата/Год выпуска: 2015-2017
Ведущий: Даниель Кайгермазов

Если у вас возникли проблемы с закачкой Mount Show - Все выпуски [01-107] (2015-2017) WEBRip 720p, перейдите по ссылке - там вы найдете решение своей проблемы.

Категория: Юмор

 

Скачать Mount Show - Все выпуски [01-107] (2015-2017) WEBRip 720p бесплатно без регистрации

 

Информация
Посетители, находящиеся в группе Гости, не могут оставлять комментарии к данной публикации.
 
 
Скачать Mount Show - Все выпуски [01-107] (2015-2017) WEBRip 720p бесплатно без регистрацииCopyright © 2019 .