Скачать Пространство / The Expanse [S02] (2017) BDRip-HEVC 1080p от HEVC CLUB | LostFilm бесплатно без регистрации





Название: Пространство
01. Сейф (Safe)
02. Двери и углы (Doors & Corners)
03. Помехи (Static)
04. В добрый путь (Godspeed)
05. Дом (Home)
06. Смена парадигмы (Paradigm Shift)
07. Седьмой человек (The Seventh Man)
08. Погребальный костёр (Pyre)
09. Плачущий лунатик (The Weeping Somnambulist)
10. Каскадный эффект (Cascade)
11. Здесь обитают драконы (Here There Be Dragons)
12. Чудовище и ракета (The Monster and the Rocket)
13. Война Калибана (Caliban's War)




Внимание!В ролях: Шоре Агдашлу, Кэс Анвар, Уэс Чэтэм, Томас Джейн, Стивен Стрейт, Илайс Туфексис, Джейн Моффат, Сара Митич, Майкл Мюррей, Джо Делфин
Аудио: Rus, 48 kHz/24-bit, DTS 5.1, ~756 kbps | LostFilm
Описание: Через двести лет от дня сегодняшнего некий сыщик, привыкший всё доводить до конца при любых обстоятельствах, в рамках расследования дела об исчезновении молодой женщины оказывается на борту звездолета, капитан которого решает помочь детективу в его непростом деле. Величайший заговор в истории человечества гарантируется, как и его непременное раскрытие.

Alex_A Оценка3.7 из 10 (3 голосов, самая низкая оценка - 1, самая высокая - 9) КатегорияЗарубежные сериалы Раздают2 Качают0 Сидер замечен07-06-2019 19:19:10 (4 минуты назад) Добавлен11-02-2018 21:45:53 (16 месяцев назад) Размер26.89 GB (28870244698 Bytes)Формат: MKV
Перевод: Профессиональный многоголосый закадровый [LostFilm]
Аудио: Eng, 48 kHz/24-bit, DTS 5.1, ~756 kbps | Оригинал
- H.265/HEVC (High Efficiency Video Coding) - это новый стандарт кодирования видео.
- Стандарт H.265/HEVC является логическим продолжением стандарта H.264/AVC (Advanced Video Coding), и характеризуется более эффективными алгоритмами сжатия, а также поддержкой высокого разрешения вплоть до 8K UHD (8192x4320). Первая версия стандарта H.265 была опубликована в начале 2013 года.
- Рипы в фомате HEVC поддерживается не всеми аппаратными проигрывателями.
- Для корректного воспроизведения может потребоваться обновление ПО.
- Владельцам несовместимого железа просьба не беспокоить, есть альтернативные релизы.
МедиаинфоGeneral
Unique ID : 139511102919397834594168063811271047550 (0x68F4DC6EFF7FFD04FC9029C20AB0B97E)
Complete name : d:HEVCThe Expanse (S02)The.Expanse.S02E02.1080p_HEVCCLUB.mkv
Format : Matroska
Format version : Version 4 / Version 2
File size : 2.05 GiB
Duration : 43 min 21 s
Overall bit rate : 6 768 kb/s
Movie name : The Expanse (2017) [S02E02] - Doors & Corners - HEVC CLUB
Encoded date : UTC 2018-01-12 19:58:41
Writing application : mkvmerge v19.0.0 ('Brave Captain') 64-bit
Writing library : libebml v1.3.5 + libmatroska v1.4.8
Cover : Yes
Attachments : Cover.jpg

Video
ID : 1
Format : HEVC
Format/Info : High Efficiency Video Coding
Format profile : Main 10@L4.1@High
Codec ID : V_MPEGH/ISO/HEVC
Duration : 43 min 21 s
Bit rate : 5 251 kb/s
Width : 1 920 pixels
Height : 1 080 pixels
Display aspect ratio : 16:9
Frame rate mode : Constant
Frame rate : 23.976 (24000/1001) FPS
Color space : YUV
Chroma subsampling : 4:2:0
Bit depth : 10 bits
Bits/(Pixel*Frame) : 0.106
Stream size : 1.59 GiB (78%)
Title : HEVC CLUB
Writing library : x265 2.6+22-ff02513b92c0:[Windows][GCC 7.2.0][64 bit] 10bit
Encoding settings : cpuid=1173503 / frame-threads=3 / numa-pools=8 / wpp / pmode / pme / no-psnr / ssim / log-level=2 / input-csp=1 / input-res=1920x1080 / interlace=0 / total-frames=0 / level-idc=41 / high-tier=1 / uhd-bd=0 / ref=5 / no-allow-non-conformance / repeat-headers / annexb / aud / no-hrd / info / hash=0 / no-temporal-layers / open-gop / min-keyint=23 / keyint=250 / gop-lookahead=0 / bframes=10 / b-adapt=2 / b-pyramid / bframe-bias=0 / rc-lookahead=60 / lookahead-slices=1 / scenecut=40 / radl=0 / no-intra-refresh / ctu=64 / min-cu-size=8 / no-rect / no-amp / max-tu-size=32 / tu-inter-depth=3 / tu-intra-depth=3 / limit-tu=0 / rdoq-level=1 / dynamic-rd=2.00 / no-ssim-rd / signhide / no-tskip / nr-intra=0 / nr-inter=0 / no-constrained-intra / no-strong-intra-smoothing / max-merge=2 / limit-refs=0 / no-limit-modes / me=2 / subme=7 / merange=57 / temporal-mvp / weightp / weightb / no-analyze-src-pics / deblock=-3:-3 / no-sao / no-sao-non-deblock / rd=4 / no-early-skip / no-rskip / no-fast-intra / no-tskip-fast / no-cu-lossless / no-b-intra / no-splitrd-skip / rdpenalty=0 / psy-rd=3.00 / psy-rdoq=2.00 / no-rd-refine / no-lossless / cbqpoffs=0 / crqpoffs=0 / rc=abr / bitrate=5256 / qcomp=0.80 / qpstep=6 / stats-write=0 / stats-read=2 / cplxblur=20.0 / qblur=0.5 / vbv-maxrate=50000 / vbv-bufsize=50000 / vbv-init=0.9 / ipratio=1.50 / pbratio=1.00 / aq-mode=1 / aq-strength=0.20 / no-cutree / zone-count=0 / no-strict-cbr / qg-size=32 / no-rc-grain / qpmax=69 / qpmin=0 / no-const-vbv / sar=1 / overscan=0 / videoformat=5 / range=0 / colorprim=2 / transfer=2 / colormatrix=1 / chromaloc=0 / display-window=0 / max-cll=0,0 / min-luma=0 / max-luma=1023 / log2-max-poc-lsb=8 / vui-timing-info / vui-hrd-info / slices=1 / no-opt-qp-pps / no-opt-ref-list-length-pps / multi-pass-opt-rps / scenecut-bias=0.05 / no-opt-cu-delta-qp / aq-motion / no-hdr / no-hdr-opt / no-dhdr10-opt / analysis-save=(null) / analysis-load=(null) / analysis-reuse-level=5 / scale-factor=0 / refine-intra=0 / refine-inter=0 / refine-mv=0 / no-limit-sao / ctu-info=0 / no-lowpass-dct / refine-mv-type=0 / copy-pic=1
Default : Yes
Forced : Yes
Color range : Limited
Matrix coefficients : BT.709

Audio #1
ID : 2
Format : DTS
Format/Info : Digital Theater Systems
Codec ID : A_DTS
Duration : 43 min 21 s
Bit rate mode : Constant
Bit rate : 756 kb/s
Channel(s) : 6 channels
Channel positions : Front: L C R, Side: L R, LFE
Sampling rate : 48.0 kHz
Frame rate : 93.750 FPS (512 SPF)
Bit depth : 24 bits
Compression mode : Lossy
Stream size : 234 MiB (11%)
Title : MVO [LostFilm]
Language : Russian
Default : Yes
Forced : No

Audio #2
ID : 3
Format : DTS
Format/Info : Digital Theater Systems
Codec ID : A_DTS
Duration : 43 min 21 s
Bit rate mode : Constant
Bit rate : 756 kb/s
Channel(s) : 6 channels
Channel positions : Front: L C R, Side: L R, LFE
Sampling rate : 48.0 kHz
Frame rate : 93.750 FPS (512 SPF)
Bit depth : 24 bits
Compression mode : Lossy
Stream size : 234 MiB (11%)
Title : Original
Language : English
Default : No
Forced : No

Text #1
ID : 4
Format : UTF-8
Codec ID : S_TEXT/UTF8
Codec ID/Info : UTF-8 Plain Text
Duration : 42 min 13 s
Bit rate : 138 b/s
Count of elements : 690
Stream size : 42.8 KiB (0%)
Title : Full
Language : Russian
Default : No
Forced : No

Text #2
ID : 5
Format : UTF-8
Codec ID : S_TEXT/UTF8
Codec ID/Info : UTF-8 Plain Text
Duration : 41 min 33 s
Bit rate : 82 b/s
Count of elements : 783
Stream size : 25.2 KiB (0%)
Title : Full
Language : English
Default : No
Forced : No

Menu
00:00:00.000 : en:Chapter 1
00:02:03.040 : en:Chapter 2
00:17:25.169 : en:Chapter 3
00:33:06.568 : en:Chapter 4

Скриншоты ЗалилНавигация по главам: Присутствует

Режиссёр: Роберт Либерман, Терри МакДонаф

Видео кодек: x265
Продолжительность: ~00:45:00
Год выпуска: 2017
Страна: США


Сезон 2, серии 13 из 13

Видео: 1920x1080, 23,976 fps, HEVC, ~5000 kbps, 10 bit
Автор рипа: Alex_A



Жанр: фантастика, детектив
Оригинальное название: The Expanse

Аудио кодек: DTS
Субтитры: русские, английские

Качество: BDRip 1080p

Если у вас возникли проблемы с закачкой Пространство / The Expanse [S02] (2017) BDRip-HEVC 1080p от HEVC CLUB | LostFilm, перейдите по ссылке - там вы найдете решение своей проблемы.

Категория: Зарубежные сериалы

 

Скачать Пространство / The Expanse [S02] (2017) BDRip-HEVC 1080p от HEVC CLUB | LostFilm бесплатно без регистрации

 

Информация
Посетители, находящиеся в группе Гости, не могут оставлять комментарии к данной публикации.
 
 
Скачать Пространство / The Expanse [S02] (2017) BDRip-HEVC 1080p от HEVC CLUB | LostFilm бесплатно без регистрацииCopyright © 2019 .