Скачать Саламандра / Salamander [S01] (2012) HDTVRip | FOX бесплатно без регистрации






Аудио №2: 48.0 kHz, AC3 Dolby Digital, 2/0 (L,R) ch, ~192 kbps |Zha-4k-e Оценка10 из 10 (1 голосов, самая низкая оценка - 10, самая высокая - 10) КатегорияЗарубежные сериалы Раздают3 Качают0 Сидер замечен07-06-2019 16:19:12 (4 минуты назад) Добавлен27-11-2018 19:22:59 (6 месяцев назад) Размер7.65 GB (8212137984 Bytes)FOX
Видео кодек: DivX 5
Качество: HDTVRip
Продолжительность: 12х ~00:47:00

Аудио кодек: АС3
Производство: Skyline Entertainment
Саламандра /Жанр: триллер, криминал
Формат: АVI
Описание: Воскресным днём в депозитарий частного брюссельского банка проникают грабители и вскрывают 66 заранее помеченных ячеек. Из ячеек забирают только личные вещи, драгоценности и наличные деньги. Документы и ценные бумаги оставляют на месте. В понедельник банк открывается, факт ограбления обнаруживается, но в полицию никто не заявляет. Ведь владельцы ячеек — публичные люди, облеченные властью. И что за секреты они там хранили, и куда в какое прошлое эти секреты ведут — только им и известно. И все было бы замечательно, не получи один дотошный детектив наводку от своего информатора о том, что в воскресенье состоялось ограбление одного из брюссельских банков…



В ролях: Филип Пеетерс, Виолет Брекман, Тине Реймер, Коен ван Импе, Вим Опбраук, Коэн Де Боу, Мике Вердренг, Леа Тис

Дата премьеры (мир): 30 декабря 2012



Media InfoСтрана: Бельгия
Аудио №1: 48.0 kHz, AC3 Dolby Digital, 2/0 (L,R) ch, ~192 kbps |Субтитры: нет

Salamander

dutch / фламандский

Режиссер: Фрэнк ван Мешлен
miha2154

Видео
Идентификатор : 0
Формат : MPEG-4 Visual
Профиль формата : Advanced Simple@L5
Параметр BVOP формата : 1
Параметр QPel формата : Нет
Параметр GMC формата : Без точки перехода
Параметр матрицы формата : Выборочная
Идентификатор кодека : DX50
Идентификатор кодека/Подсказка : DivX 5
Продолжительность : 47 м.
Битрейт : 1537 Кбит/сек
Ширина : 720 пикселей
Высота : 400 пикселей
Соотношение сторон : 16:9
Частота кадров : 25,000 кадров/сек
Цветовое пространство : YUV
Субдискретизация насыщенности : 4:2:0
Битовая глубина : 8 бит
Тип развёртки : Прогрессивная
Метод сжатия : С потерями
Бит/(Пиксели*Кадры) : 0.213
Размер потока : 518 Мбайт (79%)
Библиотека кодирования : XviD 65

Аудио #1
Идентификатор : 1
Формат : AC-3
Формат/Информация : Audio Coding 3
Расширение режима : CM (complete main)
Параметр Endianness формата : Big
Идентификатор кодека : 2000
Продолжительность : 47 м.
Вид битрейта : Постоянный
Битрейт : 192 Кбит/сек
Каналы : 2 канала
Расположение каналов : Front: L R
Частота : 48,0 КГц
Частота кадров : 31,250 кадров/сек (1536 spf)
Метод сжатия : С потерями
Размер потока : 64,8 Мбайт (10%)
Выравнивание : Разделение по промежуткам
Продолжительность промежутка : 40 мс. (1,00 видеокадр)
Время предзагрузки промежутка : 500 мс.
Заголовок : Профессиональный (многоголосый закадровый) FOX

Аудио #2
Идентификатор : 2
Формат : AC-3
Формат/Информация : Audio Coding 3
Расширение режима : CM (complete main)
Параметр Endianness формата : Big
Идентификатор кодека : 2000
Продолжительность : 47 м.
Вид битрейта : Постоянный
Битрейт : 192 Кбит/сек
Каналы : 2 канала
Расположение каналов : Front: L R
Частота : 48,0 КГц
Частота кадров : 31,250 кадров/сек (1536 spf)
Метод сжатия : С потерями
Размер потока : 64,8 Мбайт (10%)
Выравнивание : Разделение по промежуткам
Продолжительность промежутка : 40 мс. (1,00 видеокадр)
Время предзагрузки промежутка : 500 мс.
Заголовок : ФламандскийСкриншоты ЗалилГод выпуска: 2012
General
Полное имя : Salamander.S01E01.rus.dutch.avi
Формат : AVI
Формат/Информация : Audio Video Interleave
Размер файла : 653 Мбайт
Продолжительность : 47 м.
Общий поток : 1936 Кбит/сек
Название фильма : Саламандра. Сезон 1 / Salamander. Seizoen (2012)
Программа кодирования : VirtualDubMod 1.5.10.2 (build 2540/release)
Библиотека кодирования : VirtualDubMod build 2540/release
Авторское право :Авторы сценария: Баво Дхудж, Вард Хулсельманс

Видео: 720x400 (16:9), 25.000 fps, DivX 5 ~1 535 kbps avg
Перевод: Профессиональный (многоголосый, закадровый) |RUS / русский

Если у вас возникли проблемы с закачкой Саламандра / Salamander [S01] (2012) HDTVRip | FOX, перейдите по ссылке - там вы найдете решение своей проблемы.

Категория: Зарубежные сериалы

 

Скачать Саламандра / Salamander [S01] (2012) HDTVRip | FOX бесплатно без регистрации

 

Информация
Посетители, находящиеся в группе Гости, не могут оставлять комментарии к данной публикации.
 
 
Скачать Саламандра / Salamander [S01] (2012) HDTVRip | FOX бесплатно без регистрацииCopyright © 2019 .