Скачать Убийство первой степени / Murder in the First [S03] (2016) HDTVRip 720p | OMSKBIRD records бесплатно без регистрации






Информация о фильме
Кодек: AVC/H.264
Звук:
Аудио rus: AC-3, 48 KHz, 6 ch, 384 kbps | OMSKBIRD records
Название: Убийство первой степени
Релиз от: Grandfather61 ЗалилАудио eng: AC-3, 48 KHz, 6 ch, 384 kbps | original
Качество: HDTVRip 720p
Продолжительность: ~00:42:00 серия
Режиссер: Джесси Бокко, Эллисон Андерс, Реджинальд Хадлин
Субтитры: отсутствуют

Видео: 1280x720 (1.778), 23.976 fps, ~2600 kbps, 0.132 bit/pixel
skyn s61 ОценкаНикто ещё не поставил оценку КатегорияЗарубежные сериалы Раздают0 Качают0 Сидер замечен05-06-2019 21:19:13 (3 часа назад) Добавлен07-09-2016 14:32:09 (33 месяца назад) Размер9.03 GB (9693363062 Bytes)Жанр: Драма, детектив, триллер
Год выхода: 2016
Страна: США

В ролях: Йен Энтони Дэйл, Тэй Диггз, Кэтлин Робертсон, Карри Грэм, Мими Кирклэнд, Ричард Шифф, Рафаэль Сбардж, Ломбардо Бойяр, Том Фелтон, Стивен Уэбер

Семпл

Релиз:
О фильме:
В центре сюжета сериала, действие которого разворачивается в Сан-Франциско, находятся детективы Терри Сигрейв и Хилди Маллиган, которые расследуют обычное убийство наркомана, однако в ходе развития дела выходят на генерального директора компании по разработке передовых технологий Эрика Бланта.





Релиз-группа:
Релиз подготовил:Grandfather61
Роли озвучивали: Павел Ярощик, Ольга Федорова, Владислав Данилов
Перевод: Екатерина Кузнецова
Звукорежиссер: Павел Квентов
Постер: Ксения Просветова
Работа со звуком: Grandfather61
Список серий:
01. Normandy Bitch
02. Tropic of Cancer
03.Black and Blue
04. The Barbers of Seville
05. Follow the Money
06. Sam I Am
07. Let's Make a Deal
08. Daddy Dearest
09. Rise of the Phoenix
10. Kat's Meow
MediaInfo:
General
Unique ID : 216273102874325249342629685224241805649 (0xA2B4AF3B5598547EB01240F42D76B951)
Complete name : G:FilmsMurder.in.the.First.S03E.720p.OmskBirdMurder.in.the.First.S03E01.720p.HDTV.OmskBird.mkv
Format : Matroska
Format version : Version 4 / Version 2
File size : 1 009 MiB
Duration : 42mn 18s
Overall bit rate : 3 336 Kbps
Encoded date : UTC 2016-06-29 06:08:24
Writing application : mkvmerge v9.1.0 ('Little Earthquakes') 64bit
Writing library : libebml v1.3.3 + libmatroska v1.4.4

Video
ID : 1
Format : AVC
Format/Info : Advanced Video Codec
Format profile : High@L4.1
Format settings, CABAC : Yes
Format settings, ReFrames : 8 frames
Codec ID : V_MPEG4/ISO/AVC
Duration : 42mn 18s
Bit rate : 2 566 Kbps
Width : 1 280 pixels
Height : 720 pixels
Display aspect ratio : 16:9
Frame rate mode : Constant
Frame rate : 23.976 (24000/1001) fps
Color space : YUV
Chroma subsampling : 4:2:0
Bit depth : 8 bits
Scan type : Progressive
Bits/(Pixel*Frame) : 0.116
Stream size : 776 MiB (77%)
Writing library : x264 core 148 r2705 3f5ed56
Encoding settings : cabac=1 / ref=8 / deblock=1:-2:-2 / analyse=0x3:0x113 / me=umh / subme=9 / psy=1 / psy_rd=1.00:0.00 / mixed_ref=1 / me_range=24 / chroma_me=1 / trellis=1 / 8x8dct=1 / cqm=0 / deadzone=21,11 / fast_pskip=0 / chroma_qp_offset=-2 / threads=18 / lookahead_threads=2 / sliced_threads=0 / nr=0 / decimate=1 / interlaced=0 / bluray_compat=0 / constrained_intra=0 / bframes=5 / b_pyramid=2 / b_adapt=2 / b_bias=0 / direct=3 / weightb=1 / open_gop=0 / weightp=2 / keyint=250 / keyint_min=23 / scenecut=40 / intra_refresh=0 / rc_lookahead=50 / rc=crf / mbtree=1 / crf=18.0 / qcomp=0.60 / qpmin=0 / qpmax=69 / qpstep=4 / ip_ratio=1.40 / aq=1:1.00
Language : English
Default : No
Forced : No

Audio #1
ID : 2
Format : AC-3
Format/Info : Audio Coding 3
Mode extension : CM (complete main)
Format settings, Endianness : Big
Codec ID : A_AC3
Duration : 42mn 18s
Bit rate mode : Constant
Bit rate : 384 Kbps
Channel(s) : 6 channels
Channel positions : Front: L C R, Side: L R, LFE
Sampling rate : 48.0 KHz
Frame rate : 31.250 fps (1536 spf)
Compression mode : Lossy
Stream size : 116 MiB (12%)
Title : OmskBird 5.1
Language : Russian
Default : Yes
Forced : No

Audio #2
ID : 3
Format : AC-3
Format/Info : Audio Coding 3
Mode extension : CM (complete main)
Format settings, Endianness : Big
Codec ID : A_AC3
Duration : 42mn 18s
Bit rate mode : Constant
Bit rate : 384 Kbps
Channel(s) : 6 channels
Channel positions : Front: L C R, Side: L R, LFE
Sampling rate : 48.0 KHz
Frame rate : 31.250 fps (1536 spf)
Compression mode : Lossy
Stream size : 116 MiB (12%)
Title : original 5.1
Language : English
Default : No
Forced : No

Скриншоты

Оригинальное название: Murder in the First
Перевод: Любительский (многоголосый закадровый) | OMSKBIRD records

Если у вас возникли проблемы с закачкой Убийство первой степени / Murder in the First [S03] (2016) HDTVRip 720p | OMSKBIRD records, перейдите по ссылке - там вы найдете решение своей проблемы.

Категория: Зарубежные сериалы

 

Скачать Убийство первой степени / Murder in the First [S03] (2016) HDTVRip 720p | OMSKBIRD records бесплатно без регистрации

 

Информация
Посетители, находящиеся в группе Гости, не могут оставлять комментарии к данной публикации.
 
 
Скачать Убийство первой степени / Murder in the First [S03] (2016) HDTVRip 720p | OMSKBIRD records бесплатно без регистрацииCopyright © 2019 .