Скачать Тутси / Милашка / Tootsie (1982) BDRip-AVC от 0ptimus | D, P бесплатно без регистрации





Видео: 2706 Кбит/с, 1024x428, 23.976 кадр/с

bhajana108)
MediaInfo
-------------------------------------------------------------------
x264 [info]: frame I:1298 Avg QP:18.76 size: 79146
x264 [info]: frame P:30897 Avg QP:21.77 size: 28938
x264 [info]: frame B:135205 Avg QP:23.08 size: 10098
x264 [info]: consecutive B-frames: 1.2% 0.9% 3.2% 14.5% 18.2% 36.2% 10.1% 7.2% 3.5% 1.8% 1.1% 1.5% 0.6%
-------------------------------------------------------------------

Полное имя : Tootsie.1982.x264.BDRip-AVC.0ptimus.mkv
Формат : Matroska
Версия формата : Version 2
Размер файла : 2,98 Гбайт
Продолжительность : 1 ч. 56 м.
Общий поток : 3666 Кбит/сек
Название фильма : Тутси (Милашка) | Tootsie [1982] -= BDRip (AVC) by 0ptimus =-
Дата кодирования : UTC 2014-07-04 05:32:12
Программа кодирования : mkvmerge v6.6.0 ('The Edge Of The In Between') built on Dec 1 2013 17:55:00
Библиотека кодирования : libebml v1.3.0 + libmatroska v1.4.1

Видео
Идентификатор : 1
Формат : AVC
Формат/Информация : Advanced Video Codec
Профиль формата : High@L4.1
Параметр CABAC формата : Да
Параметр ReFrames формата : 9 кадров
Идентификатор кодека : V_MPEG4/ISO/AVC
Продолжительность : 1 ч. 56 м.
Битрейт : 2706 Кбит/сек
Ширина : 1024 пикселя
Высота : 428 пикселей
Соотношение сторон : 2,40:1
Режим частоты кадров : Постоянный
Частота кадров : 23,976 кадра/сек
Цветовое пространство : YUV
Субдискретизация насыщенности : 4:2:0
Битовая глубина : 8 бит
Тип развёртки : Прогрессивная
Бит/(Пиксели*Кадры) : 0.258
Размер потока : 2,14 Гбайт (72%)
Заголовок : Rip by 0ptimus
Библиотека кодирования : x264 core 133 r2334 a3ac64b
Настройки программы : cabac=1 / ref=9 / deblock=1:-2:-1 / analyse=0x3:0x113 / me=umh / subme=10 / psy=1 / psy_rd=1.00:0.20 / mixed_ref=1 / me_range=32 / chroma_me=1 / trellis=2 / 8x8dct=1 / cqm=0 / deadzone=21,11 / fast_pskip=0 / chroma_qp_offset=-3 / threads=3 / lookahead_threads=1 / sliced_threads=0 / nr=0 / decimate=0 / interlaced=0 / bluray_compat=0 / constrained_intra=0 / bframes=12 / b_pyramid=2 / b_adapt=2 / b_bias=0 / direct=3 / weightb=1 / open_gop=0 / weightp=2 / keyint=240 / keyint_min=23 / scenecut=40 / intra_refresh=0 / rc_lookahead=40 / rc=2pass / mbtree=0 / bitrate=2706 / ratetol=1.0 / qcomp=0.60 / qpmin=0 / qpmax=69 / qpstep=4 / cplxblur=20.0 / qblur=0.5 / vbv_maxrate=50000 / vbv_bufsize=50000 / nal_hrd=none / ip_ratio=1.40 / pb_ratio=1.30 / aq=1:1.00
Язык : English
Default : Да
Forced : Да

Аудио #1
Идентификатор : 2
Формат : AC-3
Формат/Информация : Audio Coding 3
Расширение режима : CM (complete main)
Параметр Endianness формата : Big
Идентификатор кодека : A_AC3
Продолжительность : 1 ч. 56 м.
Вид битрейта : Постоянный
Битрейт : 384 Кбит/сек
Каналы : 5 каналов
Расположение каналов : Front: L C R, Side: L R
Частота : 48,0 КГц
Битовая глубина : 16 бит
Метод сжатия : С потерями
Размер потока : 320 Мбайт (10%)
Заголовок : Многоголосый закадровый [BD CEE] AC3 5.1 @ 384 kbps
Язык : Russian
Default : Да
Forced : Да

Аудио #2
Идентификатор : 3
Формат : AC-3
Формат/Информация : Audio Coding 3
Расширение режима : CM (complete main)
Параметр Endianness формата : Big
Идентификатор кодека : A_AC3
Продолжительность : 1 ч. 56 м.
Вид битрейта : Постоянный
Битрейт : 192 Кбит/сек
Каналы : 2 канала
Расположение каналов : Front: L R
Частота : 48,0 КГц
Битовая глубина : 16 бит
Метод сжатия : С потерями
Размер потока : 160 Мбайт (5%)
Заголовок : Дублированный AC3 2.0 @ 192 kbps
Язык : Russian
Default : Нет
Forced : Нет

Аудио #3
Идентификатор : 4
Формат : AC-3
Формат/Информация : Audio Coding 3
Расширение режима : CM (complete main)
Параметр Endianness формата : Big
Идентификатор кодека : A_AC3
Продолжительность : 1 ч. 56 м.
Вид битрейта : Постоянный
Битрейт : 384 Кбит/сек
Каналы : 5 каналов
Расположение каналов : Front: L C R, Side: L R
Частота : 48,0 КГц
Битовая глубина : 16 бит
Метод сжатия : С потерями
Размер потока : 320 Мбайт (10%)
Заголовок : AC3 5.1 @ 384 kbps
Язык : English
Default : Нет
Forced : Нет

Текст #1
Идентификатор : 5
Формат : UTF-8
Идентификатор кодека : S_TEXT/UTF8
Идентификатор кодека/Информация : UTF-8 Plain Text
Язык : Russian
Default : Нет
Forced : Нет

Текст #2
Идентификатор : 6
Формат : UTF-8
Идентификатор кодека : S_TEXT/UTF8
Идентификатор кодека/Информация : UTF-8 Plain Text
Язык : English
Default : Нет
Forced : Нет

Текст #3
Идентификатор : 7
Формат : UTF-8
Идентификатор кодека : S_TEXT/UTF8
Идентификатор кодека/Информация : UTF-8 Plain Text
Заголовок : SDH
Язык : English
Default : Нет
Forced : Нет

Меню
00:00:00.000 : en:Start
00:05:40.167 : en:Jeff's Play
00:06:50.135 : en:Surprise Party
00:20:25.702 : en:Dorthy Meets Ron
00:22:41.835 : en:Reading for the Part
00:25:23.703 : en:The Russian Tea Room
00:30:08.337 : en:Sandy's Apartment
00:32:17.370 : en:"Tootsie"
00:35:12.503 : en:Her First Scene
00:47:44.638 : en:Julie's Apartment
00:53:03.138 : en:Three Hours Late
00:55:08.538 : en:Making Up Lines
00:57:08.872 : en:National Phenomenon
00:59:26.473 : en:Phil Weintraub's Party
01:04:53.473 : en:At the Farm
01:06:10.007 : en:"It Might Be You"
01:11:12.174 : en:Les & Dorothy
01:13:13.708 : en:Strange Bedfellows
01:17:12.908 : en:Picking Up Her Option
01:22:42.809 : en:Baby Trouble
01:24:14.009 : en:Making Her Move
01:27:16.476 : en:Les Proposes
01:29:15.543 : en:John Visits Dorothy
01:32:39.977 : en:Nightmare Continues
01:37:31.044 : en:Late Night Visit
01:41:18.177 : en:Amazing Revelation
01:46:24.811 : en:With Les
01:49:38.478 : en:A Better Man
Скриншоты


Тутси / Милашка
| Tootsie |


Информация о фильме
Жанр: комедия, мелодрама
Продолжительность: 01:56:26
Год выхода: 1982
Релиз от: ЗалилНазвание: Тутси / Милашка
Страна: США
0ptimus ОценкаНикто ещё не поставил оценку КатегорияЗарубежные фильмы Раздают2 Качают0 Сидер замечен25-05-2019 22:19:12 (4 минуты назад) Добавлен16-10-2014 18:57:36 (56 месяцев назад) Размер3.61 GB (3872652441 Bytes)Оригинальное название: Tootsie
Режиссер: Сидни Поллак
Перевод: Дублированный, профессиональный многоголосый

Студия: Columbia Pictures
Кодек: h.264
В ролях: Дастин Хоффман, Джессика Лэнг, Тери Гарр, Дэбни Коулмэн, Чарльз Дёрнинг, Билл Мюррэй, Сидни Поллак, Джордж Гейнс, Джина Дэвис, Дорис Белак, Кристин Эберсоул

Звук:
• №1: Русский (AC3, 6 ch, 384 Кбит/с) Профессиональный многоголосый [BD CEE]
• №2: Русский (AC3, 2 ch, 192 Кбит/с) Дублированный [Советский дубляж]
• №3: Английский (AC3, 6 ch, 384 Кбит/с)
Отдельно:
• №4: Русский (AC3, 2 ch, 192 Кбит/с) Профессиональный многоголосый [ОРТ]
• №5: Русский (AC3, 2 ch, 192 Кбит/с) Профессиональный многоголосый [ТРК "Останкино"]
• №6: Украинский (AC3, 6 ch, 384 Кбит/с) Профессиональный двухголосый [Канал "1+1"]

О фильме:
Безработный актёр-неудачник Майкл Дорси отчаянно ищет стоящую работу в шоу-бизнесе. Никто, однако, не хочет с ним связываться, Майкл слишком высокого мнения о себе как об актёре. Как-то раз его подружка Сэнди Лестер провалилась на пробах в мыльную оперу «Юго-западный госпиталь». Продюсер сериала, Рита Маршалл, ищет новое лицо на роль администратора госпиталя. У Майкла появилась безумная идея: а что, если он, загримировавшись женщиной, попробуется на эту роль? И затея удаётся. Более того, новоиспечённая актриса Дороти Майклз, властная и энергичная, настолько понравилась продюсерам сериала, что с ней был заключён контракт на целый сезон. Далее следует оглушительный успех у зрительской аудитории «Юго-западного госпиталя». Дороти попадает на обложки лучших изданий США. Майкл, который всего лишь хотел перебиться временной работой, застрял в сериале на многие месяцы. Мало того, он ещё и встретил там настоящую любовь!



Субтитры: Русские, английские

Релиз
• На те места, что были вырезаны в советском прокате и не были переведены, – многоголосый закадровый перевод (за работу над синхронизацией спасибоКачество: BDRip-AVC

Если у вас возникли проблемы с закачкой Тутси / Милашка / Tootsie (1982) BDRip-AVC от 0ptimus | D, P, перейдите по ссылке - там вы найдете решение своей проблемы.

Категория: Зарубежные фильмы

 

Скачать Тутси / Милашка / Tootsie (1982) BDRip-AVC от 0ptimus | D, P бесплатно без регистрации

 

Информация
Посетители, находящиеся в группе Гости, не могут оставлять комментарии к данной публикации.
 
 
Скачать Тутси / Милашка / Tootsie (1982) BDRip-AVC от 0ptimus | D, P бесплатно без регистрацииCopyright © 2019 .