Скачать Рюдзо и семеро бойцов / Ryuzo to 7 nin no kobun tachi (2015) BDRip 1080p | P | iTunes бесплатно без регистрации






Информация о фильме
В ролях: Тацуя Фудзи, Бэн Хиура, Кодзюн Ито, Масанобу Кацумура, Такеши Китано, Масаоми Кондо, Хисако Манда, Акира Накао

Качество: BDRip 1080p | iTunes
Субтитры: русские (форс. полные)
MediainfoОбщее
Уникальный идентификатор : 219245457200787394516022891753452467531 (0xA4F1239D53FFEDE692C5211D2BA1F54B)
Полное имя : C:TempRyuzo.2015.BDRip.1080p.mkv
Формат : Matroska
Версия формата : Version 2
Размер файла : 11,6 Гбайт
Продолжительность : 1 ч. 51 м.
Общий поток : 14,9 Мбит/сек
Дата кодирования : UTC 2016-07-06 13:25:43
Программа кодирования : mkvmerge v4.0.0 ('The Stars were mine') сборка от Jun 6 2010 16:18:42
Библиотека кодирования : libebml v1.0.0 + libmatroska v1.0.0

Видео
Идентификатор : 1
Формат : AVC
Формат/Информация : Advanced Video Codec
Профиль формата : High@L4.1
Параметр CABAC формата : Да
Параметр ReFrames формата : 5 кадров
Идентификатор кодека : V_MPEG4/ISO/AVC
Продолжительность : 1 ч. 51 м.
Битрейт : 13,0 Мбит/сек
Ширина : 1920 пикселей
Высота : 804 пикселя
Соотношение сторон : 2,40:1
Режим частоты кадров : Постоянный
Частота кадров : 23,976 (24000/1001) кадра/сек
Цветовое пространство : YUV
Субдискретизация насыщенности : 4:2:0
Битовая глубина : 8 бит
Тип развёртки : Прогрессивная
Бит/(Пиксели*Кадры) : 0.351
Размер потока : 9,86 Гбайт (85%)
Библиотека кодирования : x264 core 142 r2431+42 c69a006 tMod [8-bit@all X86_64]
Настройки программы : cabac=1 / ref=5 / deblock=1:-3:-3 / analyse=0x3:0x133 / me=umh / subme=11 / psy=1 / fade_compensate=0.00 / psy_rd=1.05:0.10 / mixed_ref=1 / me_range=64 / chroma_me=1 / trellis=2 / 8x8dct=1 / cqm=0 / deadzone=21,11 / fast_pskip=0 / chroma_qp_offset=-3 / threads=12 / lookahead_threads=3 / sliced_threads=0 / nr=0 / decimate=0 / interlaced=0 / bluray_compat=0 / constrained_intra=0 / fgo=0 / bframes=12 / b_pyramid=2 / b_adapt=2 / b_bias=0 / direct=3 / weightb=1 / open_gop=0 / weightp=2 / keyint=250 / keyint_min=23 / scenecut=40 / intra_refresh=0 / rc_lookahead=120 / rc=2pass / mbtree=1 / bitrate=13000 / ratetol=1.0 / qcomp=0.70 / qpmin=0:0:0 / qpmax=69:69:69 / qpstep=4 / cplxblur=20.0 / qblur=0.5 / vbv_maxrate=50000 / vbv_bufsize=50000 / nal_hrd=none / filler=0 / ip_ratio=1.40 / aq=1:0.75 / aq-sensitivity=10.00 / aq-factor=1.00:1.00:1.00 / aq2=0 / aq3=0
Язык : Japanese
Default : Нет
Forced : Нет
Цветовой диапазон : Limited
Коэффициенты матрицы : BT.709

Аудио #1
Идентификатор : 2
Формат : AC-3
Формат/Информация : Audio Coding 3
Расширение режима : CM (complete main)
Параметр Endianness формата : Big
Идентификатор кодека : A_AC3
Продолжительность : 1 ч. 51 м.
Вид битрейта : Постоянный
Битрейт : 384 Кбит/сек
Каналы : 6 каналов
Расположение каналов : Front: L C R, Side: L R, LFE
Частота : 48,0 КГц
Частота кадров : 31,250 кадров/сек (1536 spf)
Метод сжатия : С потерями
Размер потока : 306 Мбайт (3%)
Заголовок : MVO
Язык : Russian
Default : Да
Forced : Да

Аудио #2
Идентификатор : 3
Формат : DTS
Формат/Информация : Digital Theater Systems
Режим : 16
Параметр Endianness формата : Big
Идентификатор кодека : A_DTS
Продолжительность : 1 ч. 51 м.
Вид битрейта : Постоянный
Битрейт : 1509 Кбит/сек
Каналы : 6 каналов
Расположение каналов : Front: L C R, Side: L R, LFE
Частота : 48,0 КГц
Частота кадров : 93,750 кадра/сек (512 spf)
Битовая глубина : 24 бит
Метод сжатия : С потерями
Задержка видео : 11 мс.
Размер потока : 1,17 Гбайт (10%)
Язык : Japanese
Default : Нет
Forced : Нет

Текст #1
Идентификатор : 4
Формат : UTF-8
Идентификатор кодека : S_TEXT/UTF8
Идентификатор кодека/Информация : UTF-8 Plain Text
Заголовок : Forced
Язык : Russian
Default : Да
Forced : Да

Текст #2
Идентификатор : 5
Формат : UTF-8
Идентификатор кодека : S_TEXT/UTF8
Идентификатор кодека/Информация : UTF-8 Plain Text
Заголовок : Full
Язык : Russian
Default : Нет
Forced : Нет

Меню
00:00:00.000 : en:00:00:00.000
00:11:39.282 : en:00:11:39.282
00:19:25.998 : en:00:19:25.998
00:29:03.951 : en:00:29:03.951
00:39:48.011 : en:00:39:48.011
00:54:03.866 : en:00:54:03.866
01:00:40.846 : en:01:00:40.846
01:11:33.164 : en:01:11:33.164
01:23:13.363 : en:01:23:13.363
01:29:16.476 : en:01:29:16.476
01:40:01.495 : en:01:40:01.495
Скриншоты ЗалилЗвук:
Аудио #1: Русский (АС3, 6 ch, 384 Кбит/с) iTunes
Аудио #2: Японский (DTS, 6 ch, 1536 Кбит/с) Оригинал
walledoll ОценкаНикто ещё не поставил оценку КатегорияЗарубежные фильмы Раздают1 Качают2 Сидер замечен02-06-2019 5:19:11 (4 минуты назад) Добавлен06-07-2016 16:45:45 (35 месяцев назад) Размер11.56 GB (12412165330 Bytes)Страна: Япония
Перевод: Профессиональный многоголосый

Оригинальное название: Ryuzo to 7 nin no kobun tachi
Режиссер: Такеши Китано
О фильме:
Бывший боец якудза, давно ведущий размеренную жизнь пенсионера, становится жертвой мошенничества и решает основать новый клан якудза вместе со своими престарелыми друзьями, чтобы вернуть славные времена и, разумеется, воздать по заслугам обидчикам…



Видео: 1920x804, 13000 Kbps, 23.976fp
Жанр: боевик, комедия
Год выхода: 2015
Название: Рюдзо и семеро бойцов
Продолжительность: 01:51:15
Студия: Office Kitano
Кодек: MPEG4 Video (H264)

Если у вас возникли проблемы с закачкой Рюдзо и семеро бойцов / Ryuzo to 7 nin no kobun tachi (2015) BDRip 1080p | P | iTunes, перейдите по ссылке - там вы найдете решение своей проблемы.

Категория: Зарубежные фильмы

 

Скачать Рюдзо и семеро бойцов / Ryuzo to 7 nin no kobun tachi (2015) BDRip 1080p | P | iTunes бесплатно без регистрации

 

Информация
Посетители, находящиеся в группе Гости, не могут оставлять комментарии к данной публикации.
 
 
Скачать Рюдзо и семеро бойцов / Ryuzo to 7 nin no kobun tachi (2015) BDRip 1080p | P | iTunes бесплатно без регистрацииCopyright © 2019 .