Скачать Грегуар / Gregoire (2017) WEBRip 720p | L2 бесплатно без регистрации






Информация о фильме
Аудио rus: AC3, 48 kHz, 2 ch, 192 Kbps
Продолжительность: 01:46:36
Оригинальное название: Gregoire

Семпл

MediaInfo:
General
Unique ID : 310231653384117258260749911757016156623 (0xE964716EAB3CACB9D2758E8745A649CF)
Complete name : D:Gregoire.2017.720p.WEBRip.HiWayGropeGregoire.2017.720p.WEBRip.HiWayGrope.mkv
Format : Matroska
Format version : Version 4
File size : 1.97 GiB
Duration : 1 h 46 min
Overall bit rate : 2 648 kb/s
Encoded date : UTC 2018-12-28 10:35:28
Writing application : mkvmerge v28.1.0 ('Morning Child') 64-bit
Writing library : libebml v1.3.6 + libmatroska v1.4.9

Video
ID : 1
Format : AVC
Format/Info : Advanced Video Codec
Format profile : Main@L4.1
Format settings : CABAC / 4 Ref Frames
Format settings, CABAC : Yes
Format settings, RefFrames : 4 frames
Codec ID : V_MPEG4/ISO/AVC
Duration : 1 h 46 min
Bit rate : 2 454 kb/s
Width : 1 280 pixels
Height : 720 pixels
Display aspect ratio : 16:9
Frame rate mode : Constant
Frame rate : 23.976 (24000/1001) FPS
Standard : NTSC
Color space : YUV
Chroma subsampling : 4:2:0
Bit depth : 8 bits
Scan type : Progressive
Bits/(Pixel*Frame) : 0.111
Stream size : 1.83 GiB (93%)
Language : English
Default : Yes
Forced : No
Color range : Limited
Color primaries : BT.709
Transfer characteristics : BT.709
Matrix coefficients : BT.709

Audio
ID : 2
Format : AC-3
Format/Info : Audio Coding 3
Commercial name : Dolby Digital
Codec ID : A_AC3
Duration : 1 h 46 min
Bit rate mode : Constant
Bit rate : 192 kb/s
Channel(s) : 2 channels
Channel layout : L R
Sampling rate : 48.0 kHz
Frame rate : 31.250 FPS (1536 SPF)
Bit depth : 16 bits
Compression mode : Lossy
Stream size : 146 MiB (7%)
Language : Russian
Service kind : Complete Main
Default : Yes
Forced : No

Скриншоты


Жанр: Драма
В ролях: Морган Тейлор Кэмпбелл, Джаред Абрахамсон, Джедидайя Гудакр, Эмили Хейн, Бен Коттон, Робин Росс, Иэн Белчер, Джесси Хэддок, Камерон Кросби, Николь Муньос
Качество: WEBRip 720p
Звук:
Год выхода: 2017
Релиз от: HiWay Grope ЗалилРежиссер: Коуди Баун
Видео: 1280x720, 23.976 fps, ~2454 kbps, 0.111 bit/pixel
Перевод: Любительский (двухголосый закадровый) | HiWay Grope

Субтитры: отсутствуют

HiWayGrope ОценкаНикто ещё не поставил оценку КатегорияЗарубежные фильмы Раздают2 Качают0 Сидер замечен31-05-2019 6:19:12 (4 минуты назад) Добавлен29-12-2018 8:59:43 (5 месяцев назад) Размер1.97 GB (2117468153 Bytes)Реклама: присутствует

Название: Грегуар
О фильме:
Четверо молодых людей пытаются разобраться с последствиями своих действий и тем, как они повлияли на их друзей и семьи.



Кодек: MPEG-4 AVC/x.264
Страна: Канада, Oaks

Если у вас возникли проблемы с закачкой Грегуар / Gregoire (2017) WEBRip 720p | L2, перейдите по ссылке - там вы найдете решение своей проблемы.

Категория: Зарубежные фильмы

 

Скачать Грегуар / Gregoire (2017) WEBRip 720p | L2 бесплатно без регистрации

 

Информация
Посетители, находящиеся в группе Гости, не могут оставлять комментарии к данной публикации.
 
 
Скачать Грегуар / Gregoire (2017) WEBRip 720p | L2 бесплатно без регистрацииCopyright © 2019 .