Скачать Командир эскадрильи / Wing Commander (1999) BDRip 720p от MediaClub | P, P2, P1 бесплатно без регистрации






Информация о фильме
Аудио #3: Русский (AC3, 6 ch, 384 Кбит/с) / Профессиональный одноголосый
Перевод: Профессиональный многоголосый, профессиональный двухголосый, профессиональный одноголосый

Режиссер: Крис Робертс
Описание: Этот фильм — экранизация знаменитой компьютерной игры «Wing Commander». Десант с земного космического корабля сталкивается со смертоносным оружием в безнадежной битве за будущее человечества. Враждебная инопланетная раса килратхов обнаружила координаты Земли и направляется в Солнечную Систему с планами тотального уничтожения. И вот настало время для двух молодых отчаянных пилотов космических истребителей прорвать оборону килратхов и спасти свою планету от орд захватчиков, встреченных землянами в глубинахкосмоса.




Студия: Digital Anvil, No Prisoners, Origin Systems Inc., The Carousel Picture Company S.A., Wing Commander Productions
Продолжительность: 01:40:12
Видео: MPEG-4 AVC, 3500 Кбит/с, 1280x544, 23.976 кадр/с
Семпл

Скриншоты


MediaInfo & log-x264x264 [info]: frame I:1075 Avg QP:14.95 size: 99634
x264 [info]: frame P:31184 Avg QP:17.64 size: 39346
x264 [info]: frame B:111909 Avg QP:19.29 size: 11588
************************************************************************************************************************
Общее
Уникальный идентификатор : 241275531138616212187901179642703892843 (0xB583FA1E6D51A945B11C42851CB9D16B)
Полное имя : D:Mои раздачиKomandir.eskadrilji.1999.BDRip.(720p)-MediaClub.mkv
Формат : Matroska
Версия формата : Version 4 / Version 2
Размер файла : 3,53 Гбайт
Продолжительность : 1 ч. 40 м.
Общий поток : 5039 Кбит/сек
Название фильма : -=MediaClub-kaspr=-
Дата кодирования : UTC 2013-09-11 09:43:17
Программа кодирования : mkvmerge v6.3.0 ('You can't stop me!') built on Jul 19 2013 16:27:38
Библиотека кодирования : libebml v1.3.0 + libmatroska v1.4.1

Видео
Идентификатор : 1
Формат : AVC
Формат/Информация : Advanced Video Codec
Профиль формата : High@L4.1
Параметр CABAC формата : Да
Параметр ReFrames формата : 8 кадров
Идентификатор кодека : V_MPEG4/ISO/AVC
Продолжительность : 1 ч. 40 м.
Битрейт : 3500 Кбит/сек
Ширина : 1280 пикселей
Высота : 544 пикселя
Соотношение сторон : 2,35:1
Режим частоты кадров : Постоянный
Частота кадров : 23,976 кадра/сек
Цветовое пространство : YUV
Субдискретизация насыщенности : 4:2:0
Битовая глубина : 8 бит
Тип развёртки : Прогрессивная
Бит/(Пиксели*Кадры) : 0.210
Размер потока : 2,38 Гбайт (68%)
Заголовок : -=MediaClub-kaspr=-
Библиотека кодирования : x264 core 130 r2273 b3065e6
Настройки программы : cabac=1 / ref=8 / deblock=1:-3:-3 / analyse=0x3:0x133 / me=umh / subme=11 / psy=1 / psy_rd=1.00:0.20 / mixed_ref=1 / me_range=48 / chroma_me=1 / trellis=2 / 8x8dct=1 / cqm=0 / deadzone=21,11 / fast_pskip=0 / chroma_qp_offset=-3 / threads=12 / lookahead_threads=3 / sliced_threads=0 / nr=0 / decimate=0 / interlaced=0 / bluray_compat=0 / constrained_intra=0 / bframes=10 / b_pyramid=2 / b_adapt=2 / b_bias=0 / direct=3 / weightb=1 / open_gop=0 / weightp=2 / keyint=240 / keyint_min=23 / scenecut=40 / intra_refresh=0 / rc=2pass / mbtree=0 / bitrate=3500 / ratetol=1.0 / qcomp=0.60 / qpmin=0 / qpmax=69 / qpstep=4 / cplxblur=20.0 / qblur=0.5 / ip_ratio=1.40 / pb_ratio=1.30 / aq=1:1.00
Default : Да
Forced : Да

Аудио #1
Идентификатор : 2
Формат : AC-3
Формат/Информация : Audio Coding 3
Расширение режима : CM (complete main)
Параметр Endianness формата : Big
Идентификатор кодека : A_AC3
Продолжительность : 1 ч. 40 м.
Вид битрейта : Постоянный
Битрейт : 448 Кбит/сек
Каналы : 6 каналов
Расположение каналов : Front: L C R, Side: L R, LFE
Частота : 48,0 КГц
Битовая глубина : 16 бит
Метод сжатия : С потерями
Размер потока : 321 Мбайт (9%)
Заголовок : ПМ
Язык : Russian
Default : Да
Forced : Да

Аудио #2
Идентификатор : 3
Формат : AC-3
Формат/Информация : Audio Coding 3
Расширение режима : CM (complete main)
Параметр Endianness формата : Big
Идентификатор кодека : A_AC3
Продолжительность : 1 ч. 40 м.
Вид битрейта : Постоянный
Битрейт : 256 Кбит/сек
Каналы : 2 канала
Расположение каналов : Front: L R
Частота : 48,0 КГц
Битовая глубина : 16 бит
Метод сжатия : С потерями
Размер потока : 184 Мбайт (5%)
Заголовок : ПД
Язык : Russian
Default : Нет
Forced : Нет

Аудио #3
Идентификатор : 4
Формат : AC-3
Формат/Информация : Audio Coding 3
Расширение режима : CM (complete main)
Параметр Endianness формата : Big
Идентификатор кодека : A_AC3
Продолжительность : 1 ч. 40 м.
Вид битрейта : Постоянный
Битрейт : 384 Кбит/сек
Каналы : 6 каналов
Расположение каналов : Front: L C R, Side: L R, LFE
Частота : 48,0 КГц
Битовая глубина : 16 бит
Метод сжатия : С потерями
Размер потока : 275 Мбайт (8%)
Заголовок : ПО
Язык : Russian
Default : Нет
Forced : Нет

Аудио #4
Идентификатор : 5
Формат : AC-3
Формат/Информация : Audio Coding 3
Расширение режима : CM (complete main)
Параметр Endianness формата : Big
Идентификатор кодека : A_AC3
Продолжительность : 1 ч. 40 м.
Вид битрейта : Постоянный
Битрейт : 448 Кбит/сек
Каналы : 6 каналов
Расположение каналов : Front: L C R, Side: L R, LFE
Частота : 48,0 КГц
Битовая глубина : 16 бит
Метод сжатия : С потерями
Размер потока : 321 Мбайт (9%)
Заголовок : Оригинал
Язык : English
Default : Нет
Forced : Нет

Текст
Идентификатор : 6
Формат : UTF-8
Идентификатор кодека : S_TEXT/UTF8
Идентификатор кодека/Информация : UTF-8 Plain Text
Язык : Russian
Default : Нет
Forced : Нет

Меню
00:00:00.000 : en:Chapter 01
00:10:31.881 : en:Chapter 02
00:18:45.374 : en:Chapter 03
00:28:57.777 : en:Chapter 04
00:39:09.972 : en:Chapter 05
00:49:51.321 : en:Chapter 06
00:59:54.381 : en:Chapter 07
01:09:19.572 : en:Chapter 08
01:20:31.493 : en:Chapter 09
01:31:51.046 : en:Chapter 10
01:34:59.193 : en:Chapter 11

Оригинальное название: Wing Commander
Страна: США, Люксембург
Название: Командир эскадрильи
Релиз: ЗалилГод выпуска: 1999
Аудио #4: Английский (AC3, 6 ch, 448 Кбит/с)
Субтитры: Русские

В ролях: Фредди Принц-младший, Саффрон Берроуз, Мэттью Лиллард, Чеки Карио, Юрген Прохнов

kaspr Оценка8.5 из 10 (6 голосов, самая низкая оценка - 5, самая высокая - 10) КатегорияЗарубежные фильмы Раздают11 Качают2 Сидер замечен30-05-2019 23:19:12 (50 минут назад) Добавлен11-09-2013 16:12:12 (70 месяцев назад) Размер3.53 GB (3787191299 Bytes)Аудио #1: Русский (AC3, 6 ch, 448 Кбит/с) / Профессиональный многоголосый
Качество: BDRip 720p
Жанр: Фантастика, боевик, приключения
Аудио #2: Русский (AC3, 2 ch, 256 Кбит/с) / Профессиональный двухголосый

Если у вас возникли проблемы с закачкой Командир эскадрильи / Wing Commander (1999) BDRip 720p от MediaClub | P, P2, P1, перейдите по ссылке - там вы найдете решение своей проблемы.

Категория: Зарубежные фильмы

 

Скачать Командир эскадрильи / Wing Commander (1999) BDRip 720p от MediaClub | P, P2, P1 бесплатно без регистрации

 

Информация
Посетители, находящиеся в группе Гости, не могут оставлять комментарии к данной публикации.
 
 
Скачать Командир эскадрильи / Wing Commander (1999) BDRip 720p от MediaClub | P, P2, P1 бесплатно без регистрацииCopyright © 2019 .